  0
SECTION
  2
HEADER
  9
$ACADVER
  1
AC1009
  9
$DWGCODEPAGE
  3
ansi_932
  9
$INSBASE
 10
0.0
 20
0.0
 30
0.0
  9
$EXTMIN
 10
5761.023000000045
 20
-5446.117999999784
 30
0.0
  9
$EXTMAX
 10
7246.023000000045
 20
-4396.117999999784
 30
0.0
  9
$LIMMIN
 10
0.0
 20
0.0
  9
$LIMMAX
 10
1782.0
 20
1260.0
  9
$ORTHOMODE
 70
     0
  9
$REGENMODE
 70
     1
  9
$FILLMODE
 70
     1
  9
$QTEXTMODE
 70
     0
  9
$MIRRTEXT
 70
     1
  9
$DRAGMODE
 70
     2
  9
$LTSCALE
 40
3.0
  9
$OSMODE
 70
    37
  9
$ATTMODE
 70
     1
  9
$TEXTSIZE
 40
0.2
  9
$TRACEWID
 40
0.05
  9
$TEXTSTYLE
  7
STANDARD
  9
$CLAYER
  8
0
  9
$CELTYPE
  6
BYLAYER
  9
$CECOLOR
 62
   256
  9
$DIMSCALE
 40
15.0
  9
$DIMASZ
 40
0.18
  9
$DIMEXO
 40
0.0625
  9
$DIMDLI
 40
0.38
  9
$DIMRND
 40
0.0
  9
$DIMDLE
 40
0.0
  9
$DIMEXE
 40
0.18
  9
$DIMTP
 40
0.0
  9
$DIMTM
 40
0.0
  9
$DIMTXT
 40
0.18
  9
$DIMCEN
 40
0.09
  9
$DIMTSZ
 40
0.0
  9
$DIMTOL
 70
     0
  9
$DIMLIM
 70
     0
  9
$DIMTIH
 70
     1
  9
$DIMTOH
 70
     1
  9
$DIMSE1
 70
     0
  9
$DIMSE2
 70
     0
  9
$DIMTAD
 70
     0
  9
$DIMZIN
 70
     0
  9
$DIMBLK
  1

  9
$DIMASO
 70
     1
  9
$DIMSHO
 70
     1
  9
$DIMPOST
  1

  9
$DIMAPOST
  1

  9
$DIMALT
 70
     0
  9
$DIMALTD
 70
     2
  9
$DIMALTF
 40
25.4
  9
$DIMLFAC
 40
1.0
  9
$DIMTOFL
 70
     0
  9
$DIMTVP
 40
0.0
  9
$DIMTIX
 70
     0
  9
$DIMSOXD
 70
     0
  9
$DIMSAH
 70
     0
  9
$DIMBLK1
  1

  9
$DIMBLK2
  1

  9
$DIMSTYLE
  2
STANDARD
  9
$DIMCLRD
 70
     0
  9
$DIMCLRE
 70
     0
  9
$DIMCLRT
 70
     0
  9
$DIMTFAC
 40
1.0
  9
$DIMGAP
 40
0.09
  9
$LUNITS
 70
     2
  9
$LUPREC
 70
     4
  9
$SKETCHINC
 40
0.1
  9
$FILLETRAD
 40
0.5
  9
$AUNITS
 70
     0
  9
$AUPREC
 70
     0
  9
$MENU
  1
.
  9
$ELEVATION
 40
0.0
  9
$PELEVATION
 40
0.0
  9
$THICKNESS
 40
0.0
  9
$LIMCHECK
 70
     0
  9
$CHAMFERA
 40
0.0
  9
$CHAMFERB
 40
0.0
  9
$SKPOLY
 70
     0
  9
$TDCREATE
 40
2459574.032233796
  9
$TDUPDATE
 40
2459573.657243276
  9
$TDINDWG
 40
0.0000000116
  9
$TDUSRTIMER
 40
0.0000000116
  9
$USRTIMER
 70
     1
  9
$ANGBASE
 50
0.0
  9
$ANGDIR
 70
     0
  9
$PDMODE
 70
     0
  9
$PDSIZE
 40
0.0
  9
$PLINEWID
 40
0.0
  9
$COORDS
 70
     1
  9
$SPLFRAME
 70
     0
  9
$SPLINETYPE
 70
     6
  9
$SPLINESEGS
 70
     8
  9
$ATTDIA
 70
     0
  9
$ATTREQ
 70
     1
  9
$HANDLING
 70
     1
  9
$HANDSEED
  5
9FB
  9
$SURFTAB1
 70
     6
  9
$SURFTAB2
 70
     6
  9
$SURFTYPE
 70
     6
  9
$SURFU
 70
     6
  9
$SURFV
 70
     6
  9
$UCSNAME
  2

  9
$UCSORG
 10
0.0
 20
0.0
 30
0.0
  9
$UCSXDIR
 10
1.0
 20
0.0
 30
0.0
  9
$UCSYDIR
 10
0.0
 20
1.0
 30
0.0
  9
$PUCSNAME
  2

  9
$PUCSORG
 10
0.0
 20
0.0
 30
0.0
  9
$PUCSXDIR
 10
1.0
 20
0.0
 30
0.0
  9
$PUCSYDIR
 10
0.0
 20
1.0
 30
0.0
  9
$USERI1
 70
     0
  9
$USERI2
 70
     0
  9
$USERI3
 70
     0
  9
$USERI4
 70
     0
  9
$USERI5
 70
     0
  9
$USERR1
 40
0.0
  9
$USERR2
 40
0.0
  9
$USERR3
 40
0.0
  9
$USERR4
 40
0.0
  9
$USERR5
 40
0.0
  9
$WORLDVIEW
 70
     1
  9
$SHADEDGE
 70
     3
  9
$SHADEDIF
 70
    70
  9
$TILEMODE
 70
     1
  9
$MAXACTVP
 70
    64
  9
$PLIMCHECK
 70
     0
  9
$PEXTMIN
 10
0.0
 20
0.0
 30
0.0
  9
$PEXTMAX
 10
12.0
 20
9.0
 30
0.0
  9
$PLIMMIN
 10
0.0
 20
0.0
  9
$PLIMMAX
 10
12.0
 20
9.0
  9
$UNITMODE
 70
     0
  9
$VISRETAIN
 70
     1
  9
$PLINEGEN
 70
     0
  9
$PSLTSCALE
 70
     1
  0
ENDSEC
  0
SECTION
  2
TABLES
  0
TABLE
  2
VPORT
 70
     1
  0
VPORT
  2
*ACTIVE
 70
     0
 10
0.0
 20
0.0
 11
1.0
 21
1.0
 12
6256.023000000045
 22
-4921.117999999784
 13
0.0
 23
0.0
 14
1.0
 24
1.0
 15
0.0
 25
0.0
 16
0.0
 26
0.0
 36
1.0
 17
0.0
 27
0.0
 37
0.0
 40
1050.0
 41
1.452298
 42
50.0
 43
0.0
 44
0.0
 50
0.0
 51
0.0
 71
     0
 72
   100
 73
     1
 74
     3
 75
     0
 76
     0
 77
     0
 78
     0
  0
ENDTAB
  0
TABLE
  2
LTYPE
 70
     3
  0
LTYPE
  2
CONTINUOUS
 70
     0
  3
Solid line
 72
    65
 73
     0
 40
0.0
  0
LTYPE
  2
DD6
 70
     0
  3
DD6
 72
    65
 73
     4
 40
0.75
 49
0.5
 49
-0.1
 49
0.0500000508626303
 49
-0.1
  0
LTYPE
  2
HIDDEN
 70
     0
  3
__ __ __ __ __ __ __ __ __ __ __ __ _
 72
    65
 73
     2
 40
0.375
 49
0.25
 49
-0.125
  0
ENDTAB
  0
TABLE
  2
LAYER
 70
   160
  0
LAYER
  2
0
 70
     0
 62
     7
  6
CONTINUOUS
  0
LAYER
  2
TFAS-0001
 70
     0
 62
     7
  6
CONTINUOUS
  0
LAYER
  2
TFAS-0002
 70
     0
 62
     7
  6
CONTINUOUS
  0
LAYER
  2
TFAS-0003
 70
     0
 62
     7
  6
CONTINUOUS
  0
LAYER
  2
TFAS-0004
 70
     0
 62
     7
  6
CONTINUOUS
  0
LAYER
  2
TFAS-0005
 70
     0
 62
     7
  6
CONTINUOUS
  0
LAYER
  2
TFAS-0006
 70
     0
 62
     7
  6
CONTINUOUS
  0
LAYER
  2
TFAS-0007
 70
     0
 62
     7
  6
CONTINUOUS
  0
LAYER
  2
TFAS-0008
 70
     0
 62
     7
  6
CONTINUOUS
  0
LAYER
  2
TFAS-0009
 70
     0
 62
     7
  6
CONTINUOUS
  0
LAYER
  2
TFAS-0010
 70
     0
 62
     7
  6
CONTINUOUS
  0
LAYER
  2
TFAS-0011
 70
     0
 62
     7
  6
CONTINUOUS
  0
LAYER
  2
_0-0_
 70
     0
 62
     7
  6
CONTINUOUS
  0
LAYER
  2
_0-1_ADD_LINE
 70
     0
 62
     7
  6
CONTINUOUS
  0
LAYER
  2
ADD_LINE
 70
     0
 62
     7
  6
CONTINUOUS
  0
LAYER
  2
_0-A_
 70
     0
 62
     7
  6
CONTINUOUS
  0
LAYER
  2
_0-0_1
 70
     0
 62
     7
  6
CONTINUOUS
  0
LAYER
  2
_0-A_11
 70
     0
 62
     7
  6
CONTINUOUS
  0
LAYER
  2
_0-2__0-A_11
 70
     0
 62
     7
  6
CONTINUOUS
  0
LAYER
  2
TFAS-0012
 70
     0
 62
     7
  6
CONTINUOUS
  0
LAYER
  2
_0-2__0-A_
 70
     0
 62
     7
  6
CONTINUOUS
  0
LAYER
  2
_2-0_
 70
     0
 62
     7
  6
CONTINUOUS
  0
LAYER
  2
TFAS-0013
 70
     0
 62
     7
  6
CONTINUOUS
  0
LAYER
  2
_0-9_
 70
     0
 62
     7
  6
CONTINUOUS
  0
LAYER
  2
_0-3__0-2__0-2_
 70
     0
 62
     7
  6
CONTINUOUS
  0
LAYER
  2
_0-2__0-2_
 70
     0
 62
     7
  6
CONTINUOUS
  0
LAYER
  2
100HOJOSN
 70
     0
 62
     5
  6
DD6
  0
LAYER
  2
220KABE
 70
     0
 62
     3
  6
CONTINUOUS
  0
LAYER
  2
240STJ
 70
     0
 62
     9
  6
CONTINUOUS
  0
LAYER
  2
240STJ_LGS
 70
     0
 62
     9
  6
CONTINUOUS
  0
LAYER
  2
TFAS-0014
 70
     0
 62
     7
  6
CONTINUOUS
  0
LAYER
  2
TFAS-0015
 70
     0
 62
     7
  6
CONTINUOUS
  0
LAYER
  2
TFAS-0016
 70
     0
 62
     7
  6
CONTINUOUS
  0
LAYER
  2
TFAS-0017
 70
     0
 62
     7
  6
CONTINUOUS
  0
LAYER
  2
TFAS-0018
 70
     0
 62
     7
  6
CONTINUOUS
  0
LAYER
  2
TFAS-0019
 70
     0
 62
     7
  6
CONTINUOUS
  0
LAYER
  2
TFAS-0020
 70
     0
 62
     7
  6
CONTINUOUS
  0
LAYER
  2
TFAS-0021
 70
     0
 62
     7
  6
CONTINUOUS
  0
LAYER
  2
TFAS-0022
 70
     0
 62
     7
  6
CONTINUOUS
  0
LAYER
  2
TFAS-0023
 70
     0
 62
     7
  6
CONTINUOUS
  0
LAYER
  2
TFAS-0024
 70
     0
 62
     7
  6
CONTINUOUS
  0
LAYER
  2
TFAS-0025
 70
     0
 62
     7
  6
CONTINUOUS
  0
LAYER
  2
TFAS-0026
 70
     0
 62
     7
  6
CONTINUOUS
  0
LAYER
  2
TFAS-0027
 70
     0
 62
     7
  6
CONTINUOUS
  0
LAYER
  2
TFAS-0028
 70
     0
 62
     7
  6
CONTINUOUS
  0
LAYER
  2
TFAS-0029
 70
     0
 62
     7
  6
CONTINUOUS
  0
LAYER
  2
TFAS-0030
 70
     0
 62
     7
  6
CONTINUOUS
  0
LAYER
  2
TFAS-0031
 70
     0
 62
     7
  6
CONTINUOUS
  0
LAYER
  2
TFAS-0032
 70
     0
 62
     7
  6
CONTINUOUS
  0
LAYER
  2
TFAS-0033
 70
     0
 62
     7
  6
CONTINUOUS
  0
LAYER
  2
DEFPOINTS
 70
     0
 62
     7
  6
CONTINUOUS
  0
LAYER
  2
WAKU1
 70
     0
 62
     5
  6
CONTINUOUS
  0
LAYER
  2
TFAS-0034
 70
     0
 62
     7
  6
CONTINUOUS
  0
LAYER
  2
TFAS-0035
 70
     0
 62
     7
  6
CONTINUOUS
  0
LAYER
  2
TFAS-0036
 70
     0
 62
     7
  6
CONTINUOUS
  0
LAYER
  2
TFAS-0037
 70
     0
 62
     7
  6
CONTINUOUS
  0
LAYER
  2
TFAS-0038
 70
     0
 62
     7
  6
CONTINUOUS
  0
LAYER
  2
TFAS-0039
 70
     0
 62
     7
  6
CONTINUOUS
  0
LAYER
  2
TFAS-0040
 70
     0
 62
     7
  6
CONTINUOUS
  0
LAYER
  2
TFAS-0041
 70
     0
 62
     7
  6
CONTINUOUS
  0
LAYER
  2
TFAS-0042
 70
     0
 62
     7
  6
CONTINUOUS
  0
LAYER
  2
TFAS-0043
 70
     0
 62
     7
  6
CONTINUOUS
  0
LAYER
  2
TFAS-0044
 70
     0
 62
     7
  6
CONTINUOUS
  0
LAYER
  2
TFAS-0045
 70
     0
 62
     7
  6
CONTINUOUS
  0
LAYER
  2
TFAS-0046
 70
     0
 62
     7
  6
CONTINUOUS
  0
LAYER
  2
TFAS-0047
 70
     0
 62
     7
  6
CONTINUOUS
  0
LAYER
  2
TFAS-0048
 70
     0
 62
     7
  6
CONTINUOUS
  0
LAYER
  2
TFAS-0049
 70
     0
 62
     7
  6
CONTINUOUS
  0
LAYER
  2
TFAS-0050
 70
     0
 62
     7
  6
CONTINUOUS
  0
LAYER
  2
TFAS-0051
 70
     0
 62
     7
  6
CONTINUOUS
  0
LAYER
  2
TFAS-0052
 70
     0
 62
     7
  6
CONTINUOUS
  0
LAYER
  2
TFAS-0053
 70
     0
 62
     7
  6
CONTINUOUS
  0
LAYER
  2
TFAS-0054
 70
     0
 62
     7
  6
CONTINUOUS
  0
LAYER
  2
TFAS-0055
 70
     0
 62
     7
  6
CONTINUOUS
  0
LAYER
  2
TFAS-0056
 70
     0
 62
     7
  6
CONTINUOUS
  0
LAYER
  2
TFAS-0057
 70
     0
 62
     7
  6
CONTINUOUS
  0
LAYER
  2
TFAS-0058
 70
     0
 62
     7
  6
CONTINUOUS
  0
LAYER
  2
TFAS-0059
 70
     0
 62
     7
  6
CONTINUOUS
  0
LAYER
  2
TFAS-0060
 70
     0
 62
     7
  6
CONTINUOUS
  0
LAYER
  2
TFAS-0061
 70
     0
 62
     7
  6
CONTINUOUS
  0
LAYER
  2
TFAS-0062
 70
     0
 62
     7
  6
CONTINUOUS
  0
LAYER
  2
TFAS-0063
 70
     0
 62
     7
  6
CONTINUOUS
  0
LAYER
  2
TFAS-0064
 70
     0
 62
     7
  6
CONTINUOUS
  0
LAYER
  2
TFAS-0065
 70
     0
 62
     7
  6
CONTINUOUS
  0
LAYER
  2
TFAS-0066
 70
     0
 62
     7
  6
CONTINUOUS
  0
LAYER
  2
TFAS-0067
 70
     0
 62
     7
  6
CONTINUOUS
  0
LAYER
  2
TFAS-0068
 70
     0
 62
     7
  6
CONTINUOUS
  0
LAYER
  2
TFAS-0069
 70
     0
 62
     7
  6
CONTINUOUS
  0
LAYER
  2
TFAS-0070
 70
     0
 62
     7
  6
CONTINUOUS
  0
LAYER
  2
TFAS-0071
 70
     0
 62
     7
  6
CONTINUOUS
  0
LAYER
  2
TFAS-0072
 70
     0
 62
     7
  6
CONTINUOUS
  0
LAYER
  2
TFAS-0073
 70
     0
 62
     7
  6
CONTINUOUS
  0
LAYER
  2
TFAS-0074
 70
     0
 62
     7
  6
CONTINUOUS
  0
LAYER
  2
TFAS-0075
 70
     0
 62
     7
  6
CONTINUOUS
  0
LAYER
  2
TFAS-0076
 70
     0
 62
     7
  6
CONTINUOUS
  0
LAYER
  2
TFAS-0077
 70
     0
 62
     7
  6
CONTINUOUS
  0
LAYER
  2
TFAS-0078
 70
     0
 62
     7
  6
CONTINUOUS
  0
LAYER
  2
TFAS-0079
 70
     0
 62
     7
  6
CONTINUOUS
  0
LAYER
  2
TFAS-0080
 70
     0
 62
     7
  6
CONTINUOUS
  0
LAYER
  2
TFAS-0081
 70
     0
 62
     7
  6
CONTINUOUS
  0
LAYER
  2
TFAS-0082
 70
     0
 62
     7
  6
CONTINUOUS
  0
LAYER
  2
TFAS-0083
 70
     0
 62
     7
  6
CONTINUOUS
  0
LAYER
  2
TFAS-0084
 70
     0
 62
     7
  6
CONTINUOUS
  0
LAYER
  2
TFAS-0085
 70
     0
 62
     7
  6
CONTINUOUS
  0
LAYER
  2
TFAS-0086
 70
     0
 62
     7
  6
CONTINUOUS
  0
LAYER
  2
TFAS-0087
 70
     0
 62
     7
  6
CONTINUOUS
  0
LAYER
  2
TFAS-0088
 70
     0
 62
     7
  6
CONTINUOUS
  0
LAYER
  2
TFAS-0089
 70
     0
 62
     7
  6
CONTINUOUS
  0
LAYER
  2
TFAS-0090
 70
     0
 62
     7
  6
CONTINUOUS
  0
LAYER
  2
TFAS-0091
 70
     0
 62
     7
  6
CONTINUOUS
  0
LAYER
  2
TFAS-0092
 70
     0
 62
     7
  6
CONTINUOUS
  0
LAYER
  2
TFAS-0093
 70
     0
 62
     7
  6
CONTINUOUS
  0
LAYER
  2
TFAS-0094
 70
     0
 62
     7
  6
CONTINUOUS
  0
LAYER
  2
TFAS-0095
 70
     0
 62
     7
  6
CONTINUOUS
  0
LAYER
  2
TFAS-0096
 70
     0
 62
     7
  6
CONTINUOUS
  0
LAYER
  2
TFAS-0097
 70
     0
 62
     7
  6
CONTINUOUS
  0
LAYER
  2
TFAS-0098
 70
     0
 62
     7
  6
CONTINUOUS
  0
LAYER
  2
TFAS-0099
 70
     0
 62
     7
  6
CONTINUOUS
  0
LAYER
  2
TFAS-0100
 70
     0
 62
     7
  6
CONTINUOUS
  0
LAYER
  2
TFAS-0101
 70
     0
 62
     7
  6
CONTINUOUS
  0
LAYER
  2
TFAS-0102
 70
     0
 62
     7
  6
CONTINUOUS
  0
LAYER
  2
TFAS-0103
 70
     0
 62
     7
  6
CONTINUOUS
  0
LAYER
  2
TFAS-0104
 70
     0
 62
     7
  6
CONTINUOUS
  0
LAYER
  2
TFAS-0105
 70
     0
 62
     7
  6
CONTINUOUS
  0
LAYER
  2
TFAS-0106
 70
     0
 62
     7
  6
CONTINUOUS
  0
LAYER
  2
TFAS-0107
 70
     0
 62
     7
  6
CONTINUOUS
  0
LAYER
  2
TFAS-0108
 70
     0
 62
     7
  6
CONTINUOUS
  0
LAYER
  2
TFAS-0109
 70
     0
 62
     7
  6
CONTINUOUS
  0
LAYER
  2
TFAS-0110
 70
     0
 62
     7
  6
CONTINUOUS
  0
LAYER
  2
TFAS-0111
 70
     0
 62
     7
  6
CONTINUOUS
  0
LAYER
  2
TFAS-0112
 70
     0
 62
     7
  6
CONTINUOUS
  0
LAYER
  2
TFAS-0113
 70
     0
 62
     7
  6
CONTINUOUS
  0
LAYER
  2
TFAS-0114
 70
     0
 62
     7
  6
CONTINUOUS
  0
LAYER
  2
TFAS-0115
 70
     0
 62
     7
  6
CONTINUOUS
  0
LAYER
  2
TFAS-0116
 70
     0
 62
     7
  6
CONTINUOUS
  0
LAYER
  2
TFAS-0117
 70
     0
 62
     7
  6
CONTINUOUS
  0
LAYER
  2
TFAS-0118
 70
     0
 62
     7
  6
CONTINUOUS
  0
LAYER
  2
TFAS-0119
 70
     0
 62
     7
  6
CONTINUOUS
  0
LAYER
  2
TFAS-0120
 70
     0
 62
     7
  6
CONTINUOUS
  0
LAYER
  2
TFAS-0121
 70
     0
 62
     7
  6
CONTINUOUS
  0
LAYER
  2
TFAS-0122
 70
     0
 62
     7
  6
CONTINUOUS
  0
LAYER
  2
TFAS-0123
 70
     0
 62
     7
  6
CONTINUOUS
  0
LAYER
  2
TFAS-0124
 70
     0
 62
     7
  6
CONTINUOUS
  0
LAYER
  2
TFAS-0125
 70
     0
 62
     7
  6
CONTINUOUS
  0
LAYER
  2
TFAS-0126
 70
     0
 62
     7
  6
CONTINUOUS
  0
LAYER
  2
TFAS-0127
 70
     0
 62
     7
  6
CONTINUOUS
  0
LAYER
  2
TFAS-0128
 70
     0
 62
     7
  6
CONTINUOUS
  0
LAYER
  2
TFAS-0129
 70
     0
 62
     7
  6
CONTINUOUS
  0
LAYER
  2
TFAS-0130
 70
     0
 62
     7
  6
CONTINUOUS
  0
LAYER
  2
TFAS-0131
 70
     0
 62
     7
  6
CONTINUOUS
  0
LAYER
  2
TFAS-0132
 70
     0
 62
     7
  6
CONTINUOUS
  0
LAYER
  2
TFAS-0133
 70
     0
 62
     7
  6
CONTINUOUS
  0
LAYER
  2
TFAS-0134
 70
     0
 62
     7
  6
CONTINUOUS
  0
LAYER
  2
TFAS-0135
 70
     0
 62
     7
  6
CONTINUOUS
  0
LAYER
  2
TFAS-0136
 70
     0
 62
     7
  6
CONTINUOUS
  0
LAYER
  2
TFAS-0137
 70
     0
 62
     7
  6
CONTINUOUS
  0
LAYER
  2
TFAS-0138
 70
     0
 62
     7
  6
CONTINUOUS
  0
LAYER
  2
TFAS-0139
 70
     0
 62
     7
  6
CONTINUOUS
  0
LAYER
  2
TFAS-0140
 70
     0
 62
     7
  6
CONTINUOUS
  0
LAYER
  2
TFAS-0141
 70
     0
 62
     7
  6
CONTINUOUS
  0
ENDTAB
  0
TABLE
  2
STYLE
 70
    10
  0
STYLE
  2
STANDARD
 70
     0
 40
0.0
 41
1.0
 50
0.0
 71
     0
 42
0.2
  3
txt
  4
extfont2
  0
STYLE
  2
MONOSTYLE-H
 70
     0
 40
0.0
 41
1.0
 50
0.0
 71
     0
 42
0.2
  3
monotxt
  4
extfont2
  0
STYLE
  2
TATEGAKI
 70
     4
 40
0.0
 41
1.0
 50
0.0
 71
     0
 42
0.2
  3
txt
  4
@extfont2
  0
STYLE
  2
MONOSTYLE-V
 70
     4
 40
0.0
 41
1.0
 50
0.0
 71
     0
 42
0.2
  3
monotxt
  4
@extfont2
  0
STYLE
  2
STYLE1
 70
     0
 40
0.0
 41
1.0
 50
0.0
 71
     0
 42
0.2
  3
txt
  4
extfont2
  0
STYLE
  2
STYLE2
 70
     0
 40
0.0
 41
1.0
 50
0.0
 71
     0
 42
0.2
  3
txt
  4
extfont2
  0
STYLE
  2
STYLE3
 70
     0
 40
0.0
 41
1.0
 50
0.0
 71
     0
 42
0.2
  3
txt
  4
extfont2
  0
STYLE
  2
DIMFONT1
 70
     0
 40
0.0
 41
0.7691197691197691
 50
0.0
 71
     0
 42
0.2
  3
txt
  4
extfont2
  0
STYLE
  2
DIMFONT2
 70
     0
 40
0.0
 41
0.7099567099567098
 50
0.0
 71
     0
 42
0.2
  3
txt
  4
extfont2
  0
STYLE
  2
DIMFONT3
 70
     0
 40
0.0
 41
0.7395382395382394
 50
0.0
 71
     0
 42
0.2
  3
txt
  4
extfont2
  0
ENDTAB
  0
TABLE
  2
VIEW
 70
     0
  0
ENDTAB
  0
TABLE
  2
UCS
 70
     0
  0
ENDTAB
  0
TABLE
  2
APPID
 70
     1
  0
APPID
  2
ACAD
 70
     0
  0
ENDTAB
  0
TABLE
  2
DIMSTYLE
 70
     4
  0
DIMSTYLE
  2
STANDARD
 70
     0
  3

  4

  5

  6

  7

 40
1.0
 41
0.18
 42
0.0625
 43
0.38
 44
0.18
 45
0.0
 46
0.0
 47
0.0
 48
0.0
140
0.18
141
0.09
142
0.0
143
25.4
144
1.0
145
0.0
146
1.0
147
0.09
 71
     0
 72
     0
 73
     1
 74
     1
 75
     0
 76
     0
 77
     0
 78
     0
170
     0
171
     2
172
     0
173
     0
174
     0
175
     0
176
     0
177
     0
178
     0
  0
DIMSTYLE
  2
DIM001
 70
     0
  3

  4

  5
OPEN30
  6

  7

 40
15.0
 41
0.5
 42
0.0
 43
0.38
 44
0.0
 45
0.1
 46
0.0
 47
0.0
 48
0.0
140
1.386
141
0.09
142
0.0
143
25.4
144
1.0
145
0.0
146
1.0
147
0.2
 71
     0
 72
     0
 73
     0
 74
     0
 75
     0
 76
     0
 77
     3
 78
     8
170
     0
171
     2
172
     1
173
     0
174
     0
175
     0
176
     7
177
     7
178
     7
  0
DIMSTYLE
  2
DIM002
 70
     0
  3

  4

  5
OPEN30
  6

  7

 40
15.0
 41
0.5
 42
0.0
 43
0.38
 44
0.0
 45
0.1
 46
0.0
 47
0.0
 48
0.0
140
1.386
141
0.09
142
0.0
143
25.4
144
1.0
145
0.0
146
1.0
147
0.2
 71
     0
 72
     0
 73
     0
 74
     0
 75
     0
 76
     0
 77
     3
 78
     8
170
     0
171
     2
172
     1
173
     0
174
     0
175
     0
176
     7
177
     7
178
     7
  0
DIMSTYLE
  2
DIM003
 70
     0
  3

  4

  5
OPEN30
  6

  7

 40
15.0
 41
0.5
 42
0.0
 43
0.38
 44
0.0
 45
0.1
 46
0.0
 47
0.0
 48
0.0
140
1.386
141
0.09
142
0.0
143
25.4
144
1.0
145
0.0
146
1.0
147
0.2
 71
     0
 72
     0
 73
     0
 74
     0
 75
     0
 76
     0
 77
     3
 78
     8
170
     0
171
     2
172
     1
173
     0
174
     0
175
     0
176
     7
177
     7
178
     7
  0
ENDTAB
  0
ENDSEC
  0
SECTION
  2
BLOCKS
  0
BLOCK
  8
0
  2
$MODEL_SPACE
 70
     0
 10
0.0
 20
0.0
 30
0.0
  3
$MODEL_SPACE
  1

  0
ENDBLK
  5
21
  8
0
  0
BLOCK
 67
     1
  8
0
  2
$PAPER_SPACE
 70
     0
 10
0.0
 20
0.0
 30
0.0
  3
$PAPER_SPACE
  1

  0
ENDBLK
  5
1D
 67
     1
  8
0
  0
BLOCK
  8
0
  2
INS-G6DVH
 70
     0
 10
0.0
 20
0.0
 30
0.0
  3
INS-G6DVH
  1

  0
TEXT
  5
122
  8
TFAS-0006
  6
CONTINUOUS
 62
     7
 10
-140.9399999996494
 20
5.550499999831846
 30
0.0
 40
22.95
  1
品名:PF管テープ　品番:TBCZ014
 41
0.6618597531745796
  7
STYLE2
 11
-140.9399999996494
 21
28.50049999983185
 31
0.0
 73
     3
  0
TEXT
  5
123
  8
TFAS-0006
  6
CONTINUOUS
 62
     7
 10
-140.9400000001224
 20
-24.44949999981527
 30
0.0
 40
22.95
  1
品名:PF管シート　品番:SBCZ001
 41
0.6618597531745796
  7
STYLE2
 11
-140.9400000001224
 21
-1.499499999815271
 31
0.0
 73
     3
  0
ENDBLK
  5
120
  8
0
  0
BLOCK
  8
0
  2
INS-G8QK5
 70
     0
 10
0.0
 20
0.0
 30
0.0
  3
INS-G8QK5
  1

  0
LINE
  5
237
  8
TFAS-0008
  6
CONTINUOUS
 62
     7
 10
6.000000000044565
 20
200.0000000002165
 30
0.0
 11
49.00000000004457
 21
200.0000000002165
 31
0.0
  0
LINE
  5
238
  8
TFAS-0008
  6
CONTINUOUS
 62
     7
 10
-5.999999999955435
 20
204.0000000005266
 30
0.0
 11
6.000000000044565
 21
196.0000000005266
 31
0.0
  0
LINE
  5
239
  8
TFAS-0008
  6
CONTINUOUS
 62
     7
 10
6.000000000044565
 20
200.0000000005266
 30
0.0
 11
6.000000000044565
 21
196.0000000005266
 31
0.0
  0
LINE
  5
23A
  8
TFAS-0008
  6
CONTINUOUS
 62
     7
 10
-5.999999999955435
 20
204.0000000005266
 30
0.0
 11
6.000000000044565
 21
196.0000000005266
 31
0.0
  0
LINE
  5
23B
  8
TFAS-0008
  6
CONTINUOUS
 62
     7
 10
6.000000000044565
 20
200.0000000005266
 30
0.0
 11
6.000000000044565
 21
196.0000000005266
 31
0.0
  0
LINE
  5
23C
  8
TFAS-0008
  6
CONTINUOUS
 62
     7
 10
6.000000000044565
 20
200.0000000005266
 30
0.0
 11
6.000000000044565
 21
196.0000000005266
 31
0.0
  0
LINE
  5
23D
  8
TFAS-0008
  6
CONTINUOUS
 62
     7
 10
-5.999999999955435
 20
204.0000000005266
 30
0.0
 11
6.000000000044565
 21
196.0000000005266
 31
0.0
  0
LINE
  5
23E
  8
TFAS-0008
  6
CONTINUOUS
 62
     7
 10
6.000000000044565
 20
200.0000000005266
 30
0.0
 11
6.000000000044565
 21
196.0000000005266
 31
0.0
  0
LINE
  5
23F
  8
TFAS-0008
  6
CONTINUOUS
 62
     7
 10
6.000000000044565
 20
200.0000000005266
 30
0.0
 11
6.000000000044565
 21
196.0000000005266
 31
0.0
  0
LINE
  5
240
  8
TFAS-0008
  6
CONTINUOUS
 62
     7
 10
-5.999999999955435
 20
204.0000000005266
 30
0.0
 11
-5.999999999955435
 21
200.0000000005266
 31
0.0
  0
LINE
  5
241
  8
TFAS-0008
  6
CONTINUOUS
 62
     7
 10
-18.30367999995542
 20
200.0000000002165
 30
0.0
 11
-5.999999999955435
 21
200.0000000002165
 31
0.0
  0
LINE
  5
242
  8
TFAS-0008
  6
CONTINUOUS
 62
     7
 10
-48.99999999995543
 20
200.0000000002165
 30
0.0
 11
-5.999999999955435
 21
200.0000000002165
 31
0.0
  0
LINE
  5
243
  8
TFAS-0008
  6
CONTINUOUS
 62
     7
 10
-48.99999999995543
 20
-199.9999999997835
 30
0.0
 11
-5.999999999955435
 21
-199.9999999997835
 31
0.0
  0
LINE
  5
244
  8
TFAS-0008
  6
CONTINUOUS
 62
     7
 10
-18.30367999995542
 20
-199.9999999997835
 30
0.0
 11
-5.999999999955435
 21
-199.9999999997835
 31
0.0
  0
LINE
  5
245
  8
TFAS-0008
  6
CONTINUOUS
 62
     7
 10
-5.999999999955435
 20
-203.9999999994734
 30
0.0
 11
-5.999999999955435
 21
-199.9999999994734
 31
0.0
  0
LINE
  5
246
  8
TFAS-0008
  6
CONTINUOUS
 62
     7
 10
-5.999999999955435
 20
-203.9999999994734
 30
0.0
 11
6.000000000044565
 21
-195.9999999994734
 31
0.0
  0
LINE
  5
247
  8
TFAS-0008
  6
CONTINUOUS
 62
     7
 10
6.000000000044565
 20
-199.9999999994734
 30
0.0
 11
6.000000000044565
 21
-195.9999999994734
 31
0.0
  0
LINE
  5
248
  8
TFAS-0008
  6
CONTINUOUS
 62
     7
 10
6.000000000044565
 20
-199.9999999997835
 30
0.0
 11
49.00000000004457
 21
-199.9999999997835
 31
0.0
  0
ENDBLK
  5
235
  8
0
  0
BLOCK
  8
0
  2
INS-GHXIH
 70
     0
 10
0.0
 20
0.0
 30
0.0
  3
INS-GHXIH
  1

  0
LINE
  5
24D
  8
TFAS-0008
  6
CONTINUOUS
 62
     7
 10
24.00000000004457
 20
200.0000000002165
 30
0.0
 11
24.00000000004457
 21
-116.7499999997835
 31
0.0
  0
LINE
  5
24E
  8
TFAS-0008
  6
CONTINUOUS
 62
     7
 10
-23.99999999995543
 20
200.0000000002165
 30
0.0
 11
-23.99999999995543
 21
-116.7499999997835
 31
0.0
  0
LINE
  5
24F
  8
TFAS-0008
  6
CONTINUOUS
 62
     7
 10
13.50000000004457
 20
200.0000000002165
 30
0.0
 11
13.50000000004457
 21
-116.7499999997835
 31
0.0
  0
LINE
  5
250
  8
TFAS-0008
  6
CONTINUOUS
 62
     7
 10
-13.49999999995543
 20
200.0000000002165
 30
0.0
 11
-13.49999999995543
 21
-116.7499999997835
 31
0.0
  0
LINE
  5
251
  8
TFAS-0008
  6
CONTINUOUS
 62
     7
 10
-9.999999999955435
 20
200.0000000002165
 30
0.0
 11
-9.999999999955435
 21
-116.7499999997835
 31
0.0
  0
LINE
  5
252
  8
TFAS-0008
  6
CONTINUOUS
 62
     7
 10
10.00000000004457
 20
200.0000000002165
 30
0.0
 11
10.00000000004457
 21
-116.7499999997835
 31
0.0
  0
LINE
  5
253
  8
TFAS-0008
  6
CONTINUOUS
 62
     7
 10
-13.49999999995543
 20
195.9967504311289
 30
0.0
 11
-17.50324956904205
 21
200.0000000002165
 31
0.0
  0
LINE
  5
254
  8
TFAS-0008
  6
CONTINUOUS
 62
     7
 10
-13.49999999995543
 20
185.3901487132489
 30
0.0
 11
-23.99999999995543
 21
195.8901487132489
 31
0.0
  0
LINE
  5
255
  8
TFAS-0008
  6
CONTINUOUS
 62
     7
 10
-13.49999999995543
 20
174.7835469955326
 30
0.0
 11
-23.99999999995543
 21
185.2835469955335
 31
0.0
  0
LINE
  5
256
  8
TFAS-0008
  6
CONTINUOUS
 62
     7
 10
-13.49999999995543
 20
164.1769452776525
 30
0.0
 11
-23.99999999995543
 21
174.6769452776525
 31
0.0
  0
LINE
  5
257
  8
TFAS-0008
  6
CONTINUOUS
 62
     7
 10
-13.49999999995543
 20
153.5703435598543
 30
0.0
 11
-23.99999999995543
 21
164.0703435598543
 31
0.0
  0
LINE
  5
258
  8
TFAS-0008
  6
CONTINUOUS
 62
     7
 10
-13.49999999995543
 20
142.9637418420562
 30
0.0
 11
-23.99999999995543
 21
153.4637418420562
 31
0.0
  0
LINE
  5
259
  8
TFAS-0008
  6
CONTINUOUS
 62
     7
 10
-13.49999999995543
 20
132.357140124258
 30
0.0
 11
-23.99999999995543
 21
142.857140124258
 31
0.0
  0
LINE
  5
25A
  8
TFAS-0008
  6
CONTINUOUS
 62
     7
 10
-13.49999999995543
 20
121.7505384064598
 30
0.0
 11
-23.99999999995543
 21
132.2505384064598
 31
0.0
  0
LINE
  5
25B
  8
TFAS-0008
  6
CONTINUOUS
 62
     7
 10
-13.49999999995543
 20
111.1439366886616
 30
0.0
 11
-23.99999999995543
 21
121.6439366886625
 31
0.0
  0
LINE
  5
25C
  8
TFAS-0008
  6
CONTINUOUS
 62
     7
 10
-13.49999999995543
 20
100.5373349708634
 30
0.0
 11
-23.99999999995543
 21
111.0373349708643
 31
0.0
  0
LINE
  5
25D
  8
TFAS-0008
  6
CONTINUOUS
 62
     7
 10
-13.49999999995543
 20
89.93073325306523
 30
0.0
 11
-23.99999999995543
 21
100.4307332530661
 31
0.0
  0
LINE
  5
25E
  8
TFAS-0008
  6
CONTINUOUS
 62
     7
 10
-13.49999999995543
 20
79.32413153526704
 30
0.0
 11
-23.99999999995543
 21
89.82413153526795
 31
0.0
  0
LINE
  5
25F
  8
TFAS-0008
  6
CONTINUOUS
 62
     7
 10
-13.49999999995543
 20
68.71752981746886
 30
0.0
 11
-23.99999999995543
 21
79.21752981746977
 31
0.0
  0
LINE
  5
260
  8
TFAS-0008
  6
CONTINUOUS
 62
     7
 10
-13.49999999995543
 20
58.11092809967067
 30
0.0
 11
-23.99999999995543
 21
68.61092809967158
 31
0.0
  0
LINE
  5
261
  8
TFAS-0008
  6
CONTINUOUS
 62
     7
 10
-13.49999999995543
 20
47.50432638187249
 30
0.0
 11
-23.99999999995543
 21
58.0043263818734
 31
0.0
  0
LINE
  5
262
  8
TFAS-0008
  6
CONTINUOUS
 62
     7
 10
-13.49999999995543
 20
36.89772466407521
 30
0.0
 11
-23.99999999995543
 21
47.39772466407521
 31
0.0
  0
LINE
  5
263
  8
TFAS-0008
  6
CONTINUOUS
 62
     7
 10
-13.49999999995543
 20
26.29112294627703
 30
0.0
 11
-23.99999999995543
 21
36.79112294627703
 31
0.0
  0
LINE
  5
264
  8
TFAS-0008
  6
CONTINUOUS
 62
     7
 10
-13.49999999995543
 20
15.68452122847884
 30
0.0
 11
-23.99999999995543
 21
26.18452122847884
 31
0.0
  0
LINE
  5
265
  8
TFAS-0008
  6
CONTINUOUS
 62
     7
 10
-13.49999999995543
 20
5.077919510680658
 30
0.0
 11
-23.99999999995543
 21
15.57791951068066
 31
0.0
  0
LINE
  5
266
  8
TFAS-0008
  6
CONTINUOUS
 62
     7
 10
-13.49999999995543
 20
-5.528682207117527
 30
0.0
 11
-23.99999999995543
 21
4.971317792882473
 31
0.0
  0
LINE
  5
267
  8
TFAS-0008
  6
CONTINUOUS
 62
     7
 10
-13.49999999995543
 20
-16.13528392483386
 30
0.0
 11
-23.99999999995543
 21
-5.635283924832947
 31
0.0
  0
LINE
  5
268
  8
TFAS-0008
  6
CONTINUOUS
 62
     7
 10
-13.49999999995543
 20
-26.7418856427139
 30
0.0
 11
-23.99999999995543
 21
-16.2418856427139
 31
0.0
  0
LINE
  5
269
  8
TFAS-0008
  6
CONTINUOUS
 62
     7
 10
-13.49999999995543
 20
-37.34848736051208
 30
0.0
 11
-23.99999999995543
 21
-26.84848736051208
 31
0.0
  0
LINE
  5
26A
  8
TFAS-0008
  6
CONTINUOUS
 62
     7
 10
-13.49999999995543
 20
-47.95508907831027
 30
0.0
 11
-23.99999999995543
 21
-37.45508907831027
 31
0.0
  0
LINE
  5
26B
  8
TFAS-0008
  6
CONTINUOUS
 62
     7
 10
-13.49999999995543
 20
-58.56169079610845
 30
0.0
 11
-23.99999999995543
 21
-48.06169079610754
 31
0.0
  0
LINE
  5
26C
  8
TFAS-0008
  6
CONTINUOUS
 62
     7
 10
-13.49999999995543
 20
-69.16829251390664
 30
0.0
 11
-23.99999999995543
 21
-58.66829251390573
 31
0.0
  0
LINE
  5
26D
  8
TFAS-0008
  6
CONTINUOUS
 62
     7
 10
-13.49999999995543
 20
-79.77489423170482
 30
0.0
 11
-23.99999999995543
 21
-69.27489423170391
 31
0.0
  0
LINE
  5
26E
  8
TFAS-0008
  6
CONTINUOUS
 62
     7
 10
-13.49999999995543
 20
-90.381495949503
 30
0.0
 11
-23.99999999995543
 21
-79.8814959495021
 31
0.0
  0
LINE
  5
26F
  8
TFAS-0008
  6
CONTINUOUS
 62
     7
 10
-13.49999999995543
 20
-100.9880976673012
 30
0.0
 11
-23.99999999995543
 21
-90.48809766730028
 31
0.0
  0
LINE
  5
270
  8
TFAS-0008
  6
CONTINUOUS
 62
     7
 10
-13.49999999995543
 20
-111.5946993850994
 30
0.0
 11
-23.99999999995543
 21
-101.0946993850985
 31
0.0
  0
LINE
  5
271
  8
TFAS-0008
  6
CONTINUOUS
 62
     7
 10
-18.95130110306854
 20
-116.7499999997835
 30
0.0
 11
-23.99999999995543
 21
-111.7013011028967
 31
0.0
  0
LINE
  5
272
  8
TFAS-0008
  6
CONTINUOUS
 62
     7
 10
-23.99999999995543
 20
196.2548839247747
 30
0.0
 11
-20.25488392451371
 21
200.0000000002165
 31
0.0
  0
LINE
  5
273
  8
TFAS-0008
  6
CONTINUOUS
 62
     7
 10
-23.99999999995543
 20
185.6482822017097
 30
0.0
 11
-13.49999999995543
 21
196.1482822017097
 31
0.0
  0
LINE
  5
274
  8
TFAS-0008
  6
CONTINUOUS
 62
     7
 10
-23.99999999995543
 20
175.0416804839133
 30
0.0
 11
-13.49999999995543
 21
185.5416804839133
 31
0.0
  0
LINE
  5
275
  8
TFAS-0008
  6
CONTINUOUS
 62
     7
 10
-23.99999999995543
 20
164.4350787661169
 30
0.0
 11
-13.49999999995543
 21
174.9350787661169
 31
0.0
  0
LINE
  5
276
  8
TFAS-0008
  6
CONTINUOUS
 62
     7
 10
-23.99999999995543
 20
153.8284770483206
 30
0.0
 11
-13.49999999995543
 21
164.3284770483206
 31
0.0
  0
LINE
  5
277
  8
TFAS-0008
  6
CONTINUOUS
 62
     7
 10
-23.99999999995543
 20
143.2218753305242
 30
0.0
 11
-13.49999999995543
 21
153.7218753305242
 31
0.0
  0
LINE
  5
278
  8
TFAS-0008
  6
CONTINUOUS
 62
     7
 10
-23.99999999995543
 20
132.6152736127278
 30
0.0
 11
-13.49999999995543
 21
143.1152736127278
 31
0.0
  0
LINE
  5
279
  8
TFAS-0008
  6
CONTINUOUS
 62
     7
 10
-23.99999999995543
 20
122.0086718949315
 30
0.0
 11
-13.49999999995543
 21
132.5086718949315
 31
0.0
  0
LINE
  5
27A
  8
TFAS-0008
  6
CONTINUOUS
 62
     7
 10
-23.99999999995543
 20
111.4020701771351
 30
0.0
 11
-13.49999999995543
 21
121.9020701771351
 31
0.0
  0
LINE
  5
27B
  8
TFAS-0008
  6
CONTINUOUS
 62
     7
 10
-23.99999999995543
 20
100.7954684593387
 30
0.0
 11
-13.49999999995543
 21
111.2954684593387
 31
0.0
  0
LINE
  5
27C
  8
TFAS-0008
  6
CONTINUOUS
 62
     7
 10
-23.99999999995543
 20
90.18886674154237
 30
0.0
 11
-13.49999999995543
 21
100.6888667415424
 31
0.0
  0
LINE
  5
27D
  8
TFAS-0008
  6
CONTINUOUS
 62
     7
 10
-23.99999999995543
 20
79.582265023746
 30
0.0
 11
-13.49999999995543
 21
90.082265023746
 31
0.0
  0
LINE
  5
27E
  8
TFAS-0008
  6
CONTINUOUS
 62
     7
 10
-23.99999999995543
 20
68.97566331121743
 30
0.0
 11
-13.49999999995543
 21
79.47566331121743
 31
0.0
  0
LINE
  5
27F
  8
TFAS-0008
  6
CONTINUOUS
 62
     7
 10
-23.99999999995543
 20
58.36906158815327
 30
0.0
 11
-13.49999999995543
 21
68.86906158815327
 31
0.0
  0
LINE
  5
280
  8
TFAS-0008
  6
CONTINUOUS
 62
     7
 10
-23.99999999995543
 20
47.76245987035691
 30
0.0
 11
-13.49999999995543
 21
58.26245987035691
 31
0.0
  0
LINE
  5
281
  8
TFAS-0008
  6
CONTINUOUS
 62
     7
 10
-23.99999999995543
 20
37.15585815255963
 30
0.0
 11
-13.49999999995543
 21
47.65585815255963
 31
0.0
  0
LINE
  5
282
  8
TFAS-0008
  6
CONTINUOUS
 62
     7
 10
-23.99999999995543
 20
26.54925643476327
 30
0.0
 11
-13.49999999995543
 21
37.04925643476327
 31
0.0
  0
LINE
  5
283
  8
TFAS-0008
  6
CONTINUOUS
 62
     7
 10
-23.99999999995543
 20
15.9426547169669
 30
0.0
 11
-13.49999999995543
 21
26.4426547169669
 31
0.0
  0
LINE
  5
284
  8
TFAS-0008
  6
CONTINUOUS
 62
     7
 10
-23.99999999995543
 20
5.336052999170533
 30
0.0
 11
-13.49999999995543
 21
15.83605299917053
 31
0.0
  0
LINE
  5
285
  8
TFAS-0008
  6
CONTINUOUS
 62
     7
 10
-23.99999999995543
 20
-5.270548718625832
 30
0.0
 11
-13.49999999995543
 21
5.229451281374168
 31
0.0
  0
LINE
  5
286
  8
TFAS-0008
  6
CONTINUOUS
 62
     7
 10
-23.99999999995543
 20
-15.8771504364222
 30
0.0
 11
-13.49999999995543
 21
-5.377150436422198
 31
0.0
  0
LINE
  5
287
  8
TFAS-0008
  6
CONTINUOUS
 62
     7
 10
-23.99999999995543
 20
-26.48375215421856
 30
0.0
 11
-13.49999999995543
 21
-15.98375215421856
 31
0.0
  0
LINE
  5
288
  8
TFAS-0008
  6
CONTINUOUS
 62
     7
 10
-23.99999999995543
 20
-37.09035387201493
 30
0.0
 11
-13.49999999995543
 21
-26.59035387201493
 31
0.0
  0
LINE
  5
289
  8
TFAS-0008
  6
CONTINUOUS
 62
     7
 10
-23.99999999995543
 20
-47.6969555898113
 30
0.0
 11
-13.49999999995543
 21
-37.1969555898113
 31
0.0
  0
LINE
  5
28A
  8
TFAS-0008
  6
CONTINUOUS
 62
     7
 10
-23.99999999995543
 20
-58.30355730760766
 30
0.0
 11
-13.49999999995543
 21
-47.80355730760766
 31
0.0
  0
LINE
  5
28B
  8
TFAS-0008
  6
CONTINUOUS
 62
     7
 10
-23.99999999995543
 20
-68.91015902540403
 30
0.0
 11
-13.49999999995543
 21
-58.41015902540403
 31
0.0
  0
LINE
  5
28C
  8
TFAS-0008
  6
CONTINUOUS
 62
     7
 10
-23.99999999995543
 20
-79.5167607432004
 30
0.0
 11
-13.49999999995543
 21
-69.0167607432004
 31
0.0
  0
LINE
  5
28D
  8
TFAS-0008
  6
CONTINUOUS
 62
     7
 10
-23.99999999995543
 20
-90.12336246099676
 30
0.0
 11
-13.49999999995543
 21
-79.62336246099676
 31
0.0
  0
LINE
  5
28E
  8
TFAS-0008
  6
CONTINUOUS
 62
     7
 10
-23.99999999995543
 20
-100.7299641787931
 30
0.0
 11
-13.49999999995543
 21
-90.22996417879313
 31
0.0
  0
LINE
  5
28F
  8
TFAS-0008
  6
CONTINUOUS
 62
     7
 10
-23.99999999995543
 20
-111.3365658965895
 30
0.0
 11
-13.49999999995543
 21
-100.8365658965895
 31
0.0
  0
LINE
  5
290
  8
TFAS-0008
  6
CONTINUOUS
 62
     7
 10
-18.80683238535403
 20
-116.7499999997835
 30
0.0
 11
-13.49999999995543
 21
-111.4431676143859
 31
0.0
  0
LINE
  5
291
  8
TFAS-0008
  6
CONTINUOUS
 62
     7
 10
24.00000000004457
 20
195.9967504310134
 30
0.0
 11
19.99675043084153
 21
200.0000000002165
 31
0.0
  0
LINE
  5
292
  8
TFAS-0008
  6
CONTINUOUS
 62
     7
 10
24.00000000004457
 20
185.3901487132971
 30
0.0
 11
13.50000000004457
 21
195.890148713298
 31
0.0
  0
LINE
  5
293
  8
TFAS-0008
  6
CONTINUOUS
 62
     7
 10
24.00000000004457
 20
174.7835469954171
 30
0.0
 11
13.50000000004457
 21
185.2835469954171
 31
0.0
  0
LINE
  5
294
  8
TFAS-0008
  6
CONTINUOUS
 62
     7
 10
24.00000000004457
 20
164.1769452776189
 30
0.0
 11
13.50000000004457
 21
174.6769452776189
 31
0.0
  0
LINE
  5
295
  8
TFAS-0008
  6
CONTINUOUS
 62
     7
 10
24.00000000004457
 20
153.5703435599034
 30
0.0
 11
13.50000000004457
 21
164.0703435599034
 31
0.0
  0
LINE
  5
296
  8
TFAS-0008
  6
CONTINUOUS
 62
     7
 10
24.00000000004457
 20
142.9637418420225
 30
0.0
 11
13.50000000004457
 21
153.4637418420234
 31
0.0
  0
LINE
  5
297
  8
TFAS-0008
  6
CONTINUOUS
 62
     7
 10
24.00000000004457
 20
132.3571401243071
 30
0.0
 11
13.50000000004457
 21
142.8571401243071
 31
0.0
  0
LINE
  5
298
  8
TFAS-0008
  6
CONTINUOUS
 62
     7
 10
24.00000000004457
 20
121.7505384064261
 30
0.0
 11
13.50000000004457
 21
132.250538406427
 31
0.0
  0
LINE
  5
299
  8
TFAS-0008
  6
CONTINUOUS
 62
     7
 10
24.00000000004457
 20
111.1439366887107
 30
0.0
 11
13.50000000004457
 21
121.6439366887107
 31
0.0
  0
LINE
  5
29A
  8
TFAS-0008
  6
CONTINUOUS
 62
     7
 10
24.00000000004457
 20
100.5373349708298
 30
0.0
 11
13.50000000004457
 21
111.0373349708307
 31
0.0
  0
LINE
  5
29B
  8
TFAS-0008
  6
CONTINUOUS
 62
     7
 10
24.00000000004457
 20
89.93073325303158
 30
0.0
 11
13.50000000004457
 21
100.4307332530325
 31
0.0
  0
LINE
  5
29C
  8
TFAS-0008
  6
CONTINUOUS
 62
     7
 10
24.00000000004457
 20
79.32413153531616
 30
0.0
 11
13.50000000004457
 21
89.82413153531616
 31
0.0
  0
LINE
  5
29D
  8
TFAS-0008
  6
CONTINUOUS
 62
     7
 10
24.00000000004457
 20
68.71752981743612
 30
0.0
 11
13.50000000004457
 21
79.21752981743612
 31
0.0
  0
LINE
  5
29E
  8
TFAS-0008
  6
CONTINUOUS
 62
     7
 10
24.00000000004457
 20
58.11092809971979
 30
0.0
 11
13.50000000004457
 21
68.6109280997207
 31
0.0
  0
LINE
  5
29F
  8
TFAS-0008
  6
CONTINUOUS
 62
     7
 10
24.00000000004457
 20
47.50432638183975
 30
0.0
 11
13.50000000004457
 21
58.00432638183975
 31
0.0
  0
LINE
  5
2A0
  8
TFAS-0008
  6
CONTINUOUS
 62
     7
 10
24.00000000004457
 20
36.89772466404156
 30
0.0
 11
13.50000000004457
 21
47.39772466404156
 31
0.0
  0
LINE
  5
2A1
  8
TFAS-0008
  6
CONTINUOUS
 62
     7
 10
24.00000000004457
 20
26.29112294632523
 30
0.0
 11
13.50000000004457
 21
36.79112294632614
 31
0.0
  0
LINE
  5
2A2
  8
TFAS-0008
  6
CONTINUOUS
 62
     7
 10
24.00000000004457
 20
15.68452122844519
 30
0.0
 11
13.50000000004457
 21
26.18452122844519
 31
0.0
  0
LINE
  5
2A3
  8
TFAS-0008
  6
CONTINUOUS
 62
     7
 10
24.00000000004457
 20
5.077919510647007
 30
0.0
 11
13.50000000004457
 21
15.57791951064701
 31
0.0
  0
LINE
  5
2A4
  8
TFAS-0008
  6
CONTINUOUS
 62
     7
 10
24.00000000004457
 20
-5.528682207068414
 30
0.0
 11
13.50000000004457
 21
4.971317792931586
 31
0.0
  0
LINE
  5
2A5
  8
TFAS-0008
  6
CONTINUOUS
 62
     7
 10
24.00000000004457
 20
-16.13528392494936
 30
0.0
 11
13.50000000004457
 21
-5.635283924948453
 31
0.0
  0
LINE
  5
2A6
  8
TFAS-0008
  6
CONTINUOUS
 62
     7
 10
24.00000000004457
 20
-26.74188564266478
 30
0.0
 11
13.50000000004457
 21
-16.24188564266478
 31
0.0
  0
LINE
  5
2A7
  8
TFAS-0008
  6
CONTINUOUS
 62
     7
 10
24.00000000004457
 20
-37.34848736046297
 30
0.0
 11
13.50000000004457
 21
-26.84848736046297
 31
0.0
  0
LINE
  5
2A8
  8
TFAS-0008
  6
CONTINUOUS
 62
     7
 10
24.00000000004457
 20
-47.95508907834392
 30
0.0
 11
13.50000000004457
 21
-37.45508907834301
 31
0.0
  0
LINE
  5
2A9
  8
TFAS-0008
  6
CONTINUOUS
 62
     7
 10
24.00000000004457
 20
-58.56169079605934
 30
0.0
 11
13.50000000004457
 21
-48.06169079605934
 31
0.0
  0
LINE
  5
2AA
  8
TFAS-0008
  6
CONTINUOUS
 62
     7
 10
24.00000000004457
 20
-69.16829251385752
 30
0.0
 11
13.50000000004457
 21
-58.66829251385752
 31
0.0
  0
LINE
  5
2AB
  8
TFAS-0008
  6
CONTINUOUS
 62
     7
 10
24.00000000004457
 20
-79.77489423173847
 30
0.0
 11
13.50000000004457
 21
-69.27489423173756
 31
0.0
  0
LINE
  5
2AC
  8
TFAS-0008
  6
CONTINUOUS
 62
     7
 10
24.00000000004457
 20
-90.38149594945389
 30
0.0
 11
13.50000000004457
 21
-79.88149594945389
 31
0.0
  0
LINE
  5
2AD
  8
TFAS-0008
  6
CONTINUOUS
 62
     7
 10
24.00000000004457
 20
-100.9880976672521
 30
0.0
 11
13.50000000004457
 21
-90.48809766725117
 31
0.0
  0
LINE
  5
2AE
  8
TFAS-0008
  6
CONTINUOUS
 62
     7
 10
24.00000000004457
 20
-111.5946993851321
 30
0.0
 11
13.50000000004457
 21
-101.0946993851321
 31
0.0
  0
LINE
  5
2AF
  8
TFAS-0008
  6
CONTINUOUS
 62
     7
 10
18.5486988968978
 20
-116.7499999997835
 30
0.0
 11
13.50000000004457
 21
-111.7013011029303
 31
0.0
  0
LINE
  5
2B0
  8
TFAS-0008
  6
CONTINUOUS
 62
     7
 10
13.50000000004457
 20
196.2548839185583
 30
0.0
 11
17.24511608170178
 21
200.0000000002165
 31
0.0
  0
LINE
  5
2B1
  8
TFAS-0008
  6
CONTINUOUS
 62
     7
 10
13.50000000004457
 20
185.648282200762
 30
0.0
 11
24.00000000004457
 21
196.148282200762
 31
0.0
  0
LINE
  5
2B2
  8
TFAS-0008
  6
CONTINUOUS
 62
     7
 10
13.50000000004457
 20
175.0416804829656
 30
0.0
 11
24.00000000004457
 21
185.5416804829656
 31
0.0
  0
LINE
  5
2B3
  8
TFAS-0008
  6
CONTINUOUS
 62
     7
 10
13.50000000004457
 20
164.4350787651692
 30
0.0
 11
24.00000000004457
 21
174.9350787651692
 31
0.0
  0
LINE
  5
2B4
  8
TFAS-0008
  6
CONTINUOUS
 62
     7
 10
13.50000000004457
 20
153.8284770473729
 30
0.0
 11
24.00000000004457
 21
164.3284770473729
 31
0.0
  0
LINE
  5
2B5
  8
TFAS-0008
  6
CONTINUOUS
 62
     7
 10
13.50000000004457
 20
143.2218753295765
 30
0.0
 11
24.00000000004457
 21
153.7218753295765
 31
0.0
  0
LINE
  5
2B6
  8
TFAS-0008
  6
CONTINUOUS
 62
     7
 10
13.50000000004457
 20
132.6152736170479
 30
0.0
 11
24.00000000004457
 21
143.1152736170479
 31
0.0
  0
LINE
  5
2B7
  8
TFAS-0008
  6
CONTINUOUS
 62
     7
 10
13.50000000004457
 20
122.0086718939838
 30
0.0
 11
24.00000000004457
 21
132.5086718939838
 31
0.0
  0
LINE
  5
2B8
  8
TFAS-0008
  6
CONTINUOUS
 62
     7
 10
13.50000000004457
 20
111.4020701814552
 30
0.0
 11
24.00000000004457
 21
121.9020701814552
 31
0.0
  0
LINE
  5
2B9
  8
TFAS-0008
  6
CONTINUOUS
 62
     7
 10
13.50000000004457
 20
100.795468458391
 30
0.0
 11
24.00000000004457
 21
111.295468458391
 31
0.0
  0
LINE
  5
2BA
  8
TFAS-0008
  6
CONTINUOUS
 62
     7
 10
13.50000000004457
 20
90.18886674059468
 30
0.0
 11
24.00000000004457
 21
100.6888667405947
 31
0.0
  0
LINE
  5
2BB
  8
TFAS-0008
  6
CONTINUOUS
 62
     7
 10
13.50000000004457
 20
79.5822650227974
 30
0.0
 11
24.00000000004457
 21
90.0822650227974
 31
0.0
  0
LINE
  5
2BC
  8
TFAS-0008
  6
CONTINUOUS
 62
     7
 10
13.50000000004457
 20
68.97566330500104
 30
0.0
 11
24.00000000004457
 21
79.47566330500104
 31
0.0
  0
LINE
  5
2BD
  8
TFAS-0008
  6
CONTINUOUS
 62
     7
 10
13.50000000004457
 20
58.36906158720467
 30
0.0
 11
24.00000000004457
 21
68.86906158720467
 31
0.0
  0
LINE
  5
2BE
  8
TFAS-0008
  6
CONTINUOUS
 62
     7
 10
13.50000000004457
 20
47.7624598694083
 30
0.0
 11
24.00000000004457
 21
58.2624598694083
 31
0.0
  0
LINE
  5
2BF
  8
TFAS-0008
  6
CONTINUOUS
 62
     7
 10
13.50000000004457
 20
37.15585815688064
 30
0.0
 11
24.00000000004457
 21
47.65585815688064
 31
0.0
  0
LINE
  5
2C0
  8
TFAS-0008
  6
CONTINUOUS
 62
     7
 10
13.50000000004457
 20
26.54925643381557
 30
0.0
 11
24.00000000004457
 21
37.04925643381557
 31
0.0
  0
LINE
  5
2C1
  8
TFAS-0008
  6
CONTINUOUS
 62
     7
 10
13.50000000004457
 20
15.94265472128791
 30
0.0
 11
24.00000000004457
 21
26.44265472128791
 31
0.0
  0
LINE
  5
2C2
  8
TFAS-0008
  6
CONTINUOUS
 62
     7
 10
13.50000000004457
 20
5.33605299822284
 30
0.0
 11
24.00000000004457
 21
15.83605299822284
 31
0.0
  0
LINE
  5
2C3
  8
TFAS-0008
  6
CONTINUOUS
 62
     7
 10
13.50000000004457
 20
-5.270548719573526
 30
0.0
 11
24.00000000004457
 21
5.229451280426474
 31
0.0
  0
LINE
  5
2C4
  8
TFAS-0008
  6
CONTINUOUS
 62
     7
 10
13.50000000004457
 20
-15.87715043736989
 30
0.0
 11
24.00000000004457
 21
-5.377150437369892
 31
0.0
  0
LINE
  5
2C5
  8
TFAS-0008
  6
CONTINUOUS
 62
     7
 10
13.50000000004457
 20
-26.48375215516626
 30
0.0
 11
24.00000000004457
 21
-15.98375215516626
 31
0.0
  0
LINE
  5
2C6
  8
TFAS-0008
  6
CONTINUOUS
 62
     7
 10
13.50000000004457
 20
-37.09035387296262
 30
0.0
 11
24.00000000004457
 21
-26.59035387296262
 31
0.0
  0
LINE
  5
2C7
  8
TFAS-0008
  6
CONTINUOUS
 62
     7
 10
13.50000000004457
 20
-47.69695559075899
 30
0.0
 11
24.00000000004457
 21
-37.19695559075899
 31
0.0
  0
LINE
  5
2C8
  8
TFAS-0008
  6
CONTINUOUS
 62
     7
 10
13.50000000004457
 20
-58.30355730328756
 30
0.0
 11
24.00000000004457
 21
-47.80355730328756
 31
0.0
  0
LINE
  5
2C9
  8
TFAS-0008
  6
CONTINUOUS
 62
     7
 10
13.50000000004457
 20
-68.91015902635172
 30
0.0
 11
24.00000000004457
 21
-58.41015902635172
 31
0.0
  0
LINE
  5
2CA
  8
TFAS-0008
  6
CONTINUOUS
 62
     7
 10
13.50000000004457
 20
-79.5167607388803
 30
0.0
 11
24.00000000004457
 21
-69.0167607388803
 31
0.0
  0
LINE
  5
2CB
  8
TFAS-0008
  6
CONTINUOUS
 62
     7
 10
13.50000000004457
 20
-90.12336246194536
 30
0.0
 11
24.00000000004457
 21
-79.62336246194536
 31
0.0
  0
LINE
  5
2CC
  8
TFAS-0008
  6
CONTINUOUS
 62
     7
 10
13.50000000004457
 20
-100.7299641797417
 30
0.0
 11
24.00000000004457
 21
-90.22996417974173
 31
0.0
  0
LINE
  5
2CD
  8
TFAS-0008
  6
CONTINUOUS
 62
     7
 10
13.50000000004457
 20
-111.3365658975381
 30
0.0
 11
24.00000000004457
 21
-100.8365658975381
 31
0.0
  0
LINE
  5
2CE
  8
TFAS-0008
  6
CONTINUOUS
 62
     7
 10
18.69316761559458
 20
-116.7499999997835
 30
0.0
 11
24.00000000004457
 21
-111.4431676153345
 31
0.0
  0
LINE
  5
2CF
  8
TFAS-0008
  6
CONTINUOUS
 62
     7
 10
13.50000000004457
 20
-170.9505202263426
 30
0.0
 11
13.50000000004457
 21
-170.3527632279774
 31
0.0
  0
LINE
  5
2D0
  8
TFAS-0008
  6
CONTINUOUS
 62
     7
 10
-13.49999999995543
 20
-170.9505202263426
 30
0.0
 11
-13.49999999995543
 21
-170.3527632279774
 31
0.0
  0
LINE
  5
2D1
  8
TFAS-0008
  6
CONTINUOUS
 62
     7
 10
-13.49999999995543
 20
-166.7499999997835
 30
0.0
 11
-13.49999999995543
 21
-170.9505202263426
 31
0.0
  0
LINE
  5
2D2
  8
TFAS-0008
  6
CONTINUOUS
 62
     7
 10
13.50000000004457
 20
-166.7499999997835
 30
0.0
 11
13.50000000004457
 21
-170.9505202263426
 31
0.0
  0
LINE
  5
2D3
  8
TFAS-0008
  6
CONTINUOUS
 62
     7
 10
24.00000000004457
 20
-166.7499999997835
 30
0.0
 11
24.00000000004457
 21
-170.9505202263426
 31
0.0
  0
LINE
  5
2D4
  8
TFAS-0008
  6
CONTINUOUS
 62
     7
 10
-23.99999999995543
 20
-166.7499999997835
 30
0.0
 11
-23.99999999995543
 21
-170.9505202263426
 31
0.0
  0
LINE
  5
2D5
  8
TFAS-0008
  6
CONTINUOUS
 62
     7
 10
-23.99999999995543
 20
-170.9505202263426
 30
0.0
 11
-23.99999999995543
 21
-199.9999999997835
 31
0.0
  0
LINE
  5
2D6
  8
TFAS-0008
  6
CONTINUOUS
 62
     7
 10
-13.49999999995543
 20
-170.9505202263426
 30
0.0
 11
-13.49999999995543
 21
-199.9999999997835
 31
0.0
  0
LINE
  5
2D7
  8
TFAS-0008
  6
CONTINUOUS
 62
     7
 10
13.50000000004457
 20
-170.9505202263426
 30
0.0
 11
13.50000000004457
 21
-199.9999999997835
 31
0.0
  0
LINE
  5
2D8
  8
TFAS-0008
  6
CONTINUOUS
 62
     7
 10
24.00000000004457
 20
-170.9505202263426
 30
0.0
 11
24.00000000004457
 21
-199.9999999997835
 31
0.0
  0
LINE
  5
2D9
  8
TFAS-0008
  6
CONTINUOUS
 62
     7
 10
-9.999999999955435
 20
-170.9505202263426
 30
0.0
 11
-9.999999999955435
 21
-199.9999999997835
 31
0.0
  0
LINE
  5
2DA
  8
TFAS-0008
  6
CONTINUOUS
 62
     7
 10
-9.999999999955435
 20
-166.7499999997835
 30
0.0
 11
-9.999999999955435
 21
-170.9505202263426
 31
0.0
  0
LINE
  5
2DB
  8
TFAS-0008
  6
CONTINUOUS
 62
     7
 10
10.00000000004457
 20
-170.9505202263426
 30
0.0
 11
10.00000000004457
 21
-199.9999999997835
 31
0.0
  0
LINE
  5
2DC
  8
TFAS-0008
  6
CONTINUOUS
 62
     7
 10
10.00000000004457
 20
-166.7499999997835
 30
0.0
 11
10.00000000004457
 21
-170.9505202263426
 31
0.0
  0
LINE
  5
2DD
  8
TFAS-0008
  6
CONTINUOUS
 62
     7
 10
-13.49999999995543
 20
-175.2343096918876
 30
0.0
 11
-21.98430969206038
 21
-166.7499999997835
 31
0.0
  0
LINE
  5
2DE
  8
TFAS-0008
  6
CONTINUOUS
 62
     7
 10
-13.49999999995543
 20
-185.8409114096448
 30
0.0
 11
-23.99999999995543
 21
-175.3409114096439
 31
0.0
  0
LINE
  5
2DF
  8
TFAS-0008
  6
CONTINUOUS
 62
     7
 10
-13.49999999995543
 20
-196.4475131274839
 30
0.0
 11
-23.99999999995543
 21
-185.9475131274839
 31
0.0
  0
LINE
  5
2E0
  8
TFAS-0008
  6
CONTINUOUS
 62
     7
 10
-20.55411484545311
 20
-199.9999999997835
 30
0.0
 11
-23.99999999995543
 21
-196.5541148452821
 31
0.0
  0
LINE
  5
2E1
  8
TFAS-0008
  6
CONTINUOUS
 62
     7
 10
-23.99999999995543
 20
-174.9761762033686
 30
0.0
 11
-15.77382379637129
 21
-166.7499999997835
 31
0.0
  0
LINE
  5
2E2
  8
TFAS-0008
  6
CONTINUOUS
 62
     7
 10
-23.99999999995543
 20
-185.5827779158963
 30
0.0
 11
-13.49999999995543
 21
-175.0827779158963
 31
0.0
  0
LINE
  5
2E3
  8
TFAS-0008
  6
CONTINUOUS
 62
     7
 10
-23.99999999995543
 20
-196.1893796389613
 30
0.0
 11
-13.49999999995543
 21
-185.6893796389613
 31
0.0
  0
LINE
  5
2E4
  8
TFAS-0008
  6
CONTINUOUS
 62
     7
 10
-17.20401864298219
 20
-199.9999999997835
 30
0.0
 11
-13.49999999995543
 21
-196.2959813567577
 31
0.0
  0
LINE
  5
2E5
  8
TFAS-0008
  6
CONTINUOUS
 62
     7
 10
24.00000000004457
 20
-175.2343096918803
 30
0.0
 11
15.5156903079469
 21
-166.7499999997835
 31
0.0
  0
LINE
  5
2E6
  8
TFAS-0008
  6
CONTINUOUS
 62
     7
 10
24.00000000004457
 20
-185.8409114096785
 30
0.0
 11
13.50000000004457
 21
-175.3409114096776
 31
0.0
  0
LINE
  5
2E7
  8
TFAS-0008
  6
CONTINUOUS
 62
     7
 10
24.00000000004457
 20
-196.4475131274767
 30
0.0
 11
13.50000000004457
 21
-185.9475131274758
 31
0.0
  0
LINE
  5
2E8
  8
TFAS-0008
  6
CONTINUOUS
 62
     7
 10
16.94588515455416
 20
-199.9999999997835
 30
0.0
 11
13.50000000004457
 21
-196.5541148452739
 31
0.0
  0
LINE
  5
2E9
  8
TFAS-0008
  6
CONTINUOUS
 62
     7
 10
13.50000000004457
 20
-174.9761762043163
 30
0.0
 11
21.7261762045764
 21
-166.7499999997835
 31
0.0
  0
LINE
  5
2EA
  8
TFAS-0008
  6
CONTINUOUS
 62
     7
 10
13.50000000004457
 20
-185.5827779221127
 30
0.0
 11
24.00000000004457
 21
-175.0827779221127
 31
0.0
  0
LINE
  5
2EB
  8
TFAS-0008
  6
CONTINUOUS
 62
     7
 10
13.50000000004457
 20
-196.189379639909
 30
0.0
 11
24.00000000004457
 21
-185.689379639909
 31
0.0
  0
LINE
  5
2EC
  8
TFAS-0008
  6
CONTINUOUS
 62
     7
 10
20.29598135796641
 20
-199.9999999997835
 30
0.0
 11
24.00000000004457
 21
-196.2959813577054
 31
0.0
  0
ENDBLK
  5
24B
  8
0
  0
BLOCK
  8
0
  2
INS-D8NGX
 70
     0
 10
0.0
 20
0.0
 30
0.0
  3
INS-D8NGX
  1

  0
TEXT
  5
7B9
  8
TFAS-0005
  6
CONTINUOUS
 62
     7
 10
6398.81300000089
 20
-5111.728000002434
 30
0.0
 40
20.79
  1
50
 50
90.0
 41
0.8451865594722736
  7
STYLE3
 72
     1
 11
6405.02300000089
 21
-5100.118000002434
 31
0.0
 73
     1
  0
TEXT
  5
7BA
  8
TFAS-0005
  6
CONTINUOUS
 62
     7
 10
6425.81300000089
 20
-5123.338000002434
 30
0.0
 40
20.79
  1
以上
 50
90.0
 41
0.8451865594722736
  7
STYLE3
 72
     1
 11
6432.02300000089
 21
-5100.118000002433
 31
0.0
 73
     1
  0
LINE
  5
7BB
  8
TFAS-0005
  6
CONTINUOUS
 62
     7
 10
6398.523000000045
 20
-5075.117999999784
 30
0.0
 11
6433.523000000045
 21
-5075.117999999784
 31
0.0
  0
LINE
  5
7BC
  8
TFAS-0005
  6
CONTINUOUS
 62
     7
 10
6398.523000000045
 20
-5125.117999999784
 30
0.0
 11
6433.523000000045
 21
-5125.117999999784
 31
0.0
  0
LINE
  5
7BD
  8
TFAS-0005
  6
CONTINUOUS
 62
     7
 10
6433.523000000045
 20
-5125.117999999784
 30
0.0
 11
6433.523000000045
 21
-5075.117999999784
 31
0.0
  0
POLYLINE
  5
7BE
  8
TFAS-0005
  6
CONTINUOUS
 62
     7
 66
     1
 10
0.0
 20
0.0
 30
0.0
  0
VERTEX
  5
7BF
  8
TFAS-0005
  6
CONTINUOUS
 62
     7
 10
6435.464142838314
 20
-5117.873556302616
 30
0.0
  0
VERTEX
  5
7C0
  8
TFAS-0005
  6
CONTINUOUS
 62
     7
 10
6433.523000000045
 20
-5125.117999999784
 30
0.0
  0
VERTEX
  5
7C1
  8
TFAS-0005
  6
CONTINUOUS
 62
     7
 10
6431.581857161776
 20
-5117.873556302616
 30
0.0
  0
SEQEND
  5
7C2
  8
TFAS-0005
  6
CONTINUOUS
 62
     7
  0
POLYLINE
  5
7C3
  8
TFAS-0005
  6
CONTINUOUS
 62
     7
 66
     1
 10
0.0
 20
0.0
 30
0.0
  0
VERTEX
  5
7C4
  8
TFAS-0005
  6
CONTINUOUS
 62
     7
 10
6431.581857161776
 20
-5082.362443696952
 30
0.0
  0
VERTEX
  5
7C5
  8
TFAS-0005
  6
CONTINUOUS
 62
     7
 10
6433.523000000045
 20
-5075.117999999784
 30
0.0
  0
VERTEX
  5
7C6
  8
TFAS-0005
  6
CONTINUOUS
 62
     7
 10
6435.464142838314
 20
-5082.362443696952
 30
0.0
  0
SEQEND
  5
7C7
  8
TFAS-0005
  6
CONTINUOUS
 62
     7
  0
ENDBLK
  5
7B7
  8
0
  0
BLOCK
  8
0
  2
_OPEN30
 70
     0
 10
0.0
 20
0.0
 30
0.0
  3
_OPEN30
  1

  0
LINE
  5
7CE
  8
0
  6
BYBLOCK
 62
     0
 10
-1.0
 20
0.267949
 30
0.0
 11
0.0
 21
0.0
 31
0.0
  0
LINE
  5
7CF
  8
0
  6
BYBLOCK
 62
     0
 10
0.0
 20
0.0
 30
0.0
 11
-1.0
 21
-0.267949
 31
0.0
  0
LINE
  5
7D0
  8
0
  6
BYBLOCK
 62
     0
 10
0.0
 20
0.0
 30
0.0
 11
-1.0
 21
0.0
 31
0.0
  0
ENDBLK
  5
7CD
  8
0
  0
BLOCK
  8
0
  2
*D6
 70
     1
 10
0.0
 20
0.0
 30
0.0
  3
*D6
  1

  0
LINE
  5
7D5
  8
TFAS-0005
  6
CONTINUOUS
 62
     7
 10
6398.523000000045
 20
-5075.117999999784
 30
0.0
 11
6433.523000000045
 21
-5075.117999999784
 31
0.0
  0
LINE
  5
7D6
  8
TFAS-0005
  6
CONTINUOUS
 62
     7
 10
6398.523000000045
 20
-4841.617999999784
 30
0.0
 11
6433.523000000045
 21
-4841.617999999784
 31
0.0
  0
LINE
  5
7D7
  8
TFAS-0005
  6
CONTINUOUS
 62
     7
 10
6433.523000000045
 20
-5067.617999999784
 30
0.0
 11
6433.523000000045
 21
-4849.117999999784
 31
0.0
  0
INSERT
  5
7D8
  8
TFAS-0005
 62
     7
  2
_OPEN30
 10
6433.523000000045
 20
-5075.117999999784
 30
0.0
 41
7.5
 42
7.5
 43
7.5
 50
270.0
  0
INSERT
  5
7D9
  8
TFAS-0005
 62
     7
  2
_OPEN30
 10
6433.523000000045
 20
-4841.617999999784
 30
0.0
 41
7.5
 42
7.5
 43
7.5
 50
90.0
  0
POINT
  5
7DB
  8
DEFPOINTS
 62
     0
 10
6398.523000000045
 20
-5075.117999999784
 30
0.0
  0
POINT
  5
7DC
  8
DEFPOINTS
 62
     0
 10
6398.523000000045
 20
-4841.617999999784
 30
0.0
  0
POINT
  5
7DD
  8
DEFPOINTS
 62
     0
 10
6433.523000000045
 20
-4841.617999999784
 30
0.0
  0
TEXT
  5
9E1
  8
TFAS-0005
  6
CONTINUOUS
 62
     7
 10
6428.918000007778
 20
-5007.103000002467
 30
0.0
 40
20.79
  1
233.5以上
 50
90.0
 41
0.7691197691197691
  7
DIMFONT1
 72
     1
 11
6418.523000007777
 21
-4958.368000002467
 31
0.0
 73
     2
  0
ENDBLK
  5
7D4
  8
0
  0
BLOCK
  8
0
  2
*D7
 70
     1
 10
0.0
 20
0.0
 30
0.0
  3
*D7
  1

  0
LINE
  5
7E2
  8
TFAS-0005
  6
CONTINUOUS
 62
     7
 10
6120.773000000045
 20
-5208.367999999784
 30
0.0
 11
6120.773000000045
 21
-5313.367999999784
 31
0.0
  0
LINE
  5
7E3
  8
TFAS-0005
  6
CONTINUOUS
 62
     7
 10
6130.773000000045
 20
-5208.367999999784
 30
0.0
 11
6130.773000000045
 21
-5313.367999999784
 31
0.0
  0
LINE
  5
7E4
  8
TFAS-0005
  6
CONTINUOUS
 62
     7
 10
6130.773000000045
 20
-5313.367999999784
 30
0.0
 11
6048.75728571433
 21
-5313.367999999784
 31
0.0
  0
LINE
  5
7E6
  8
TFAS-0005
  6
CONTINUOUS
 62
     7
 10
6113.273000000045
 20
-5313.367999999784
 30
0.0
 11
6105.773000000045
 21
-5313.367999999784
 31
0.0
  0
LINE
  5
7E7
  8
TFAS-0005
  6
CONTINUOUS
 62
     7
 10
6138.273000000045
 20
-5313.367999999784
 30
0.0
 11
6145.773000000045
 21
-5313.367999999784
 31
0.0
  0
INSERT
  5
7E8
  8
TFAS-0005
 62
     7
  2
_OPEN30
 10
6120.773000000045
 20
-5313.367999999784
 30
0.0
 41
7.5
 42
7.5
 43
7.5
  0
INSERT
  5
7E9
  8
TFAS-0005
 62
     7
  2
_OPEN30
 10
6130.773000000045
 20
-5313.367999999784
 30
0.0
 41
7.5
 42
7.5
 43
7.5
 50
180.0
  0
POINT
  5
7EB
  8
DEFPOINTS
 62
     0
 10
6120.773000000045
 20
-5208.367999999784
 30
0.0
  0
POINT
  5
7EC
  8
DEFPOINTS
 62
     0
 10
6130.773000000045
 20
-5208.367999999784
 30
0.0
  0
POINT
  5
7ED
  8
DEFPOINTS
 62
     0
 10
6130.773000000045
 20
-5313.367999999784
 30
0.0
  0
TEXT
  5
9E2
  8
TFAS-0005
  6
CONTINUOUS
 62
     7
 10
6051.112999996833
 20
-5308.76299999531
 30
0.0
 40
20.79
  1
10以上
 41
0.7691197691197691
  7
DIMFONT1
 72
     1
 11
6085.942999996832
 21
-5298.367999995309
 31
0.0
 73
     2
  0
ENDBLK
  5
7E1
  8
0
  0
BLOCK
  8
0
  2
*D8
 70
     1
 10
0.0
 20
0.0
 30
0.0
  3
*D8
  1

  0
LINE
  5
7F2
  8
TFAS-0005
  6
CONTINUOUS
 62
     7
 10
6130.773000000045
 20
-5208.367999999784
 30
0.0
 11
6130.773000000045
 21
-5313.367999999784
 31
0.0
  0
LINE
  5
7F3
  8
TFAS-0005
  6
CONTINUOUS
 62
     7
 10
6208.773000000045
 20
-5208.367999999784
 30
0.0
 11
6208.773000000045
 21
-5313.367999999784
 31
0.0
  0
LINE
  5
7F4
  8
TFAS-0005
  6
CONTINUOUS
 62
     7
 10
6138.273000000045
 20
-5313.367999999784
 30
0.0
 11
6201.273000000045
 21
-5313.367999999784
 31
0.0
  0
INSERT
  5
7F5
  8
TFAS-0005
 62
     7
  2
_OPEN30
 10
6130.773000000045
 20
-5313.367999999784
 30
0.0
 41
7.5
 42
7.5
 43
7.5
 50
180.0
  0
INSERT
  5
7F6
  8
TFAS-0005
 62
     7
  2
_OPEN30
 10
6208.773000000045
 20
-5313.367999999784
 30
0.0
 41
7.5
 42
7.5
 43
7.5
  0
POINT
  5
7F8
  8
DEFPOINTS
 62
     0
 10
6130.773000000045
 20
-5208.367999999784
 30
0.0
  0
POINT
  5
7F9
  8
DEFPOINTS
 62
     0
 10
6208.773000000045
 20
-5208.367999999784
 30
0.0
  0
POINT
  5
7FA
  8
DEFPOINTS
 62
     0
 10
6208.773000000045
 20
-5313.367999999784
 30
0.0
  0
TEXT
  5
9E3
  8
TFAS-0005
  6
CONTINUOUS
 62
     7
 10
6134.943000001693
 20
-5308.762999998306
 30
0.0
 40
20.79
  1
78以下
 41
0.7691197691197691
  7
DIMFONT1
 72
     1
 11
6169.773000001693
 21
-5298.367999998306
 31
0.0
 73
     2
  0
ENDBLK
  5
7F1
  8
0
  0
BLOCK
  8
0
  2
*D9
 70
     1
 10
0.0
 20
0.0
 30
0.0
  3
*D9
  1

  0
LINE
  5
7FF
  8
TFAS-0005
  6
CONTINUOUS
 62
     7
 10
6208.773000000045
 20
-5208.367999999784
 30
0.0
 11
6208.773000000045
 21
-5313.367999999784
 31
0.0
  0
LINE
  5
800
  8
TFAS-0005
  6
CONTINUOUS
 62
     7
 10
6218.773000000045
 20
-5208.367999999784
 30
0.0
 11
6218.773000000045
 21
-5313.367999999784
 31
0.0
  0
LINE
  5
801
  8
TFAS-0005
  6
CONTINUOUS
 62
     7
 10
6208.773000000045
 20
-5313.367999999784
 30
0.0
 11
6290.78871428576
 21
-5313.367999999784
 31
0.0
  0
LINE
  5
803
  8
TFAS-0005
  6
CONTINUOUS
 62
     7
 10
6201.273000000045
 20
-5313.367999999784
 30
0.0
 11
6193.773000000045
 21
-5313.367999999784
 31
0.0
  0
LINE
  5
804
  8
TFAS-0005
  6
CONTINUOUS
 62
     7
 10
6226.273000000045
 20
-5313.367999999784
 30
0.0
 11
6233.773000000045
 21
-5313.367999999784
 31
0.0
  0
INSERT
  5
805
  8
TFAS-0005
 62
     7
  2
_OPEN30
 10
6208.773000000045
 20
-5313.367999999784
 30
0.0
 41
7.5
 42
7.5
 43
7.5
  0
INSERT
  5
806
  8
TFAS-0005
 62
     7
  2
_OPEN30
 10
6218.773000000045
 20
-5313.367999999784
 30
0.0
 41
7.5
 42
7.5
 43
7.5
 50
180.0
  0
POINT
  5
808
  8
DEFPOINTS
 62
     0
 10
6208.773000000045
 20
-5208.367999999784
 30
0.0
  0
POINT
  5
809
  8
DEFPOINTS
 62
     0
 10
6218.773000000045
 20
-5208.367999999784
 30
0.0
  0
POINT
  5
80A
  8
DEFPOINTS
 62
     0
 10
6218.773000000045
 20
-5313.367999999784
 30
0.0
  0
TEXT
  5
9E4
  8
TFAS-0005
  6
CONTINUOUS
 62
     7
 10
6218.772999998937
 20
-5308.762999996444
 30
0.0
 40
20.79
  1
10以上
 41
0.7691197691197691
  7
DIMFONT1
 72
     1
 11
6253.602999998937
 21
-5298.367999996443
 31
0.0
 73
     2
  0
ENDBLK
  5
7FE
  8
0
  0
BLOCK
  8
0
  2
INS-D51HQ
 70
     0
 10
0.0
 20
0.0
 30
0.0
  3
INS-D51HQ
  1

  0
TEXT
  5
80E
  8
TFAS-0005
  6
CONTINUOUS
 62
     7
 10
6146.553000002989
 20
-5208.657999999467
 30
0.0
 40
20.79
  1
φ48
 41
0.8182125203401801
  7
STYLE3
 72
     1
 11
6169.77300000299
 21
-5214.867999999467
 31
0.0
 73
     1
  0
TEXT
  5
80F
  8
TFAS-0005
  6
CONTINUOUS
 62
     7
 10
6146.553000002989
 20
-5235.657999999467
 30
0.0
 40
20.79
  1
以下
 41
0.8451865594722736
  7
STYLE3
 72
     1
 11
6169.77300000299
 21
-5241.867999999467
 31
0.0
 73
     1
  0
LINE
  5
810
  8
TFAS-0005
  6
CONTINUOUS
 62
     7
 10
6193.773000000045
 20
-5208.367999999784
 30
0.0
 11
6193.773000000045
 21
-5243.367999999784
 31
0.0
  0
LINE
  5
811
  8
TFAS-0005
  6
CONTINUOUS
 62
     7
 10
6145.773000000045
 20
-5208.367999999784
 30
0.0
 11
6145.773000000045
 21
-5243.367999999784
 31
0.0
  0
LINE
  5
812
  8
TFAS-0005
  6
CONTINUOUS
 62
     7
 10
6145.773000000045
 20
-5243.367999999784
 30
0.0
 11
6193.773000000045
 21
-5243.367999999784
 31
0.0
  0
POLYLINE
  5
813
  8
TFAS-0005
  6
CONTINUOUS
 62
     7
 66
     1
 10
0.0
 20
0.0
 30
0.0
  0
VERTEX
  5
814
  8
TFAS-0005
  6
CONTINUOUS
 62
     7
 10
6153.017443697213
 20
-5245.309142838053
 30
0.0
  0
VERTEX
  5
815
  8
TFAS-0005
  6
CONTINUOUS
 62
     7
 10
6145.773000000045
 20
-5243.367999999784
 30
0.0
  0
VERTEX
  5
816
  8
TFAS-0005
  6
CONTINUOUS
 62
     7
 10
6153.017443697213
 20
-5241.426857161515
 30
0.0
  0
SEQEND
  5
817
  8
TFAS-0005
  6
CONTINUOUS
 62
     7
  0
POLYLINE
  5
818
  8
TFAS-0005
  6
CONTINUOUS
 62
     7
 66
     1
 10
0.0
 20
0.0
 30
0.0
  0
VERTEX
  5
819
  8
TFAS-0005
  6
CONTINUOUS
 62
     7
 10
6186.528556302876
 20
-5241.426857161515
 30
0.0
  0
VERTEX
  5
81A
  8
TFAS-0005
  6
CONTINUOUS
 62
     7
 10
6193.773000000045
 20
-5243.367999999784
 30
0.0
  0
VERTEX
  5
81B
  8
TFAS-0005
  6
CONTINUOUS
 62
     7
 10
6186.528556302876
 20
-5245.309142838053
 30
0.0
  0
SEQEND
  5
81C
  8
TFAS-0005
  6
CONTINUOUS
 62
     7
  0
ENDBLK
  5
80D
  8
0
  0
BLOCK
  8
0
  2
*D11
 70
     1
 10
0.0
 20
0.0
 30
0.0
  3
*D11
  1

  0
LINE
  5
822
  8
TFAS-0005
  6
CONTINUOUS
 62
     7
 10
6130.773000000045
 20
-4831.617999999784
 30
0.0
 11
6130.773000000045
 21
-4796.617999999784
 31
0.0
  0
LINE
  5
823
  8
TFAS-0005
  6
CONTINUOUS
 62
     7
 10
6145.773000000045
 20
-4831.617999999784
 30
0.0
 11
6145.773000000045
 21
-4796.617999999784
 31
0.0
  0
LINE
  5
824
  8
TFAS-0005
  6
CONTINUOUS
 62
     7
 10
6145.773000000045
 20
-4796.617999999784
 30
0.0
 11
6054.950142857188
 21
-4796.617999999784
 31
0.0
  0
LINE
  5
826
  8
TFAS-0005
  6
CONTINUOUS
 62
     7
 10
6123.273000000045
 20
-4796.617999999784
 30
0.0
 11
6115.773000000045
 21
-4796.617999999784
 31
0.0
  0
LINE
  5
827
  8
TFAS-0005
  6
CONTINUOUS
 62
     7
 10
6153.273000000045
 20
-4796.617999999784
 30
0.0
 11
6160.773000000045
 21
-4796.617999999784
 31
0.0
  0
INSERT
  5
828
  8
TFAS-0005
 62
     7
  2
_OPEN30
 10
6130.773000000045
 20
-4796.617999999784
 30
0.0
 41
7.5
 42
7.5
 43
7.5
  0
INSERT
  5
829
  8
TFAS-0005
 62
     7
  2
_OPEN30
 10
6145.773000000045
 20
-4796.617999999784
 30
0.0
 41
7.5
 42
7.5
 43
7.5
 50
180.0
  0
POINT
  5
82B
  8
DEFPOINTS
 62
     0
 10
6130.773000000045
 20
-4831.617999999784
 30
0.0
  0
POINT
  5
82C
  8
DEFPOINTS
 62
     0
 10
6145.773000000045
 20
-4831.617999999784
 30
0.0
  0
POINT
  5
82D
  8
DEFPOINTS
 62
     0
 10
6145.773000000045
 20
-4796.617999999784
 30
0.0
  0
TEXT
  5
9E5
  8
TFAS-0005
  6
CONTINUOUS
 62
     7
 10
6072.722999998574
 20
-4792.013000002428
 30
0.0
 40
20.79
  1
2～15
 41
0.7691197691197691
  7
DIMFONT1
 72
     1
 11
6101.747999998574
 21
-4781.618000002428
 31
0.0
 73
     2
  0
ENDBLK
  5
821
  8
0
  0
BLOCK
  8
0
  2
*D12
 70
     1
 10
0.0
 20
0.0
 30
0.0
  3
*D12
  1

  0
LINE
  5
832
  8
TFAS-0005
  6
CONTINUOUS
 62
     7
 10
6193.773000000045
 20
-4831.617999999784
 30
0.0
 11
6193.773000000045
 21
-4796.617999999784
 31
0.0
  0
LINE
  5
833
  8
TFAS-0005
  6
CONTINUOUS
 62
     7
 10
6208.773000000045
 20
-4831.617999999784
 30
0.0
 11
6208.773000000045
 21
-4796.617999999784
 31
0.0
  0
LINE
  5
834
  8
TFAS-0005
  6
CONTINUOUS
 62
     7
 10
6193.773000000045
 20
-4796.617999999784
 30
0.0
 11
6284.595857142902
 21
-4796.617999999784
 31
0.0
  0
LINE
  5
836
  8
TFAS-0005
  6
CONTINUOUS
 62
     7
 10
6186.273000000045
 20
-4796.617999999784
 30
0.0
 11
6178.773000000045
 21
-4796.617999999784
 31
0.0
  0
LINE
  5
837
  8
TFAS-0005
  6
CONTINUOUS
 62
     7
 10
6216.273000000045
 20
-4796.617999999784
 30
0.0
 11
6223.773000000045
 21
-4796.617999999784
 31
0.0
  0
INSERT
  5
838
  8
TFAS-0005
 62
     7
  2
_OPEN30
 10
6193.773000000045
 20
-4796.617999999784
 30
0.0
 41
7.5
 42
7.5
 43
7.5
  0
INSERT
  5
839
  8
TFAS-0005
 62
     7
  2
_OPEN30
 10
6208.773000000045
 20
-4796.617999999784
 30
0.0
 41
7.5
 42
7.5
 43
7.5
 50
180.0
  0
POINT
  5
83B
  8
DEFPOINTS
 62
     0
 10
6193.773000000045
 20
-4831.617999999784
 30
0.0
  0
POINT
  5
83C
  8
DEFPOINTS
 62
     0
 10
6208.773000000045
 20
-4831.617999999784
 30
0.0
  0
POINT
  5
83D
  8
DEFPOINTS
 62
     0
 10
6208.773000000045
 20
-4796.617999999784
 30
0.0
  0
TEXT
  5
9E6
  8
TFAS-0005
  6
CONTINUOUS
 62
     7
 10
6208.773000003466
 20
-4792.013000001079
 30
0.0
 40
20.79
  1
2～15
 41
0.7691197691197691
  7
DIMFONT1
 72
     1
 11
6237.798000003466
 21
-4781.618000001079
 31
0.0
 73
     2
  0
ENDBLK
  5
831
  8
0
  0
BLOCK
  8
0
  2
*D13
 70
     1
 10
0.0
 20
0.0
 30
0.0
  3
*D13
  1

  0
LINE
  5
842
  8
TFAS-0005
  6
CONTINUOUS
 62
     7
 10
6130.773000000045
 20
-4708.367999999784
 30
0.0
 11
6130.773000000045
 21
-4673.367999999784
 31
0.0
  0
LINE
  5
843
  8
TFAS-0005
  6
CONTINUOUS
 62
     7
 10
6208.773000000045
 20
-4708.367999999784
 30
0.0
 11
6208.773000000045
 21
-4673.367999999784
 31
0.0
  0
LINE
  5
844
  8
TFAS-0005
  6
CONTINUOUS
 62
     7
 10
6138.273000000045
 20
-4673.367999999784
 30
0.0
 11
6201.273000000045
 21
-4673.367999999784
 31
0.0
  0
INSERT
  5
845
  8
TFAS-0005
 62
     7
  2
_OPEN30
 10
6130.773000000045
 20
-4673.367999999784
 30
0.0
 41
7.5
 42
7.5
 43
7.5
 50
180.0
  0
INSERT
  5
846
  8
TFAS-0005
 62
     7
  2
_OPEN30
 10
6208.773000000045
 20
-4673.367999999784
 30
0.0
 41
7.5
 42
7.5
 43
7.5
  0
POINT
  5
848
  8
DEFPOINTS
 62
     0
 10
6130.773000000045
 20
-4708.367999999784
 30
0.0
  0
POINT
  5
849
  8
DEFPOINTS
 62
     0
 10
6208.773000000045
 20
-4708.367999999784
 30
0.0
  0
POINT
  5
84A
  8
DEFPOINTS
 62
     0
 10
6208.773000000045
 20
-4673.367999999784
 30
0.0
  0
TEXT
  5
9E7
  8
TFAS-0005
  6
CONTINUOUS
 62
     7
 10
6123.332999997189
 20
-4668.762999997623
 30
0.0
 40
20.79
  1
φ78以下
 41
0.7691197691197691
  7
DIMFONT1
 72
     1
 11
6169.772999997189
 21
-4658.367999997622
 31
0.0
 73
     2
  0
ENDBLK
  5
841
  8
0
  0
BLOCK
  8
0
  2
*D14
 70
     1
 10
0.0
 20
0.0
 30
0.0
  3
*D14
  1

  0
LINE
  5
850
  8
TFAS-0005
  6
CONTINUOUS
 62
     7
 10
6130.773000000045
 20
-5040.117999999784
 30
0.0
 11
6130.773000000045
 21
-5005.117999999784
 31
0.0
  0
LINE
  5
851
  8
TFAS-0005
  6
CONTINUOUS
 62
     7
 10
6145.773000000045
 20
-5040.117999999784
 30
0.0
 11
6145.773000000045
 21
-5005.117999999784
 31
0.0
  0
LINE
  5
852
  8
TFAS-0005
  6
CONTINUOUS
 62
     7
 10
6145.773000000045
 20
-5005.117999999784
 30
0.0
 11
6054.950142857188
 21
-5005.117999999784
 31
0.0
  0
LINE
  5
854
  8
TFAS-0005
  6
CONTINUOUS
 62
     7
 10
6123.273000000045
 20
-5005.117999999784
 30
0.0
 11
6115.773000000045
 21
-5005.117999999784
 31
0.0
  0
LINE
  5
855
  8
TFAS-0005
  6
CONTINUOUS
 62
     7
 10
6153.273000000045
 20
-5005.117999999784
 30
0.0
 11
6160.773000000045
 21
-5005.117999999784
 31
0.0
  0
INSERT
  5
856
  8
TFAS-0005
 62
     7
  2
_OPEN30
 10
6130.773000000045
 20
-5005.117999999784
 30
0.0
 41
7.5
 42
7.5
 43
7.5
  0
INSERT
  5
857
  8
TFAS-0005
 62
     7
  2
_OPEN30
 10
6145.773000000045
 20
-5005.117999999784
 30
0.0
 41
7.5
 42
7.5
 43
7.5
 50
180.0
  0
POINT
  5
859
  8
DEFPOINTS
 62
     0
 10
6130.773000000045
 20
-5040.117999999784
 30
0.0
  0
POINT
  5
85A
  8
DEFPOINTS
 62
     0
 10
6145.773000000045
 20
-5040.117999999784
 30
0.0
  0
POINT
  5
85B
  8
DEFPOINTS
 62
     0
 10
6145.773000000045
 20
-5005.117999999784
 30
0.0
  0
TEXT
  5
9E8
  8
TFAS-0005
  6
CONTINUOUS
 62
     7
 10
6072.723000007412
 20
-5000.513000000498
 30
0.0
 40
20.79
  1
0～15
 41
0.7691197691197691
  7
DIMFONT1
 72
     1
 11
6101.748000007412
 21
-4990.118000000498
 31
0.0
 73
     2
  0
ENDBLK
  5
84F
  8
0
  0
BLOCK
  8
0
  2
INS-DOD7P
 70
     0
 10
0.0
 20
0.0
 30
0.0
  3
INS-DOD7P
  1

  0
TEXT
  5
85F
  8
TFAS-0005
  6
CONTINUOUS
 62
     7
 10
6146.553000009758
 20
-4970.408000004863
 30
0.0
 40
20.79
  1
φ48
 41
0.8182125203401801
  7
STYLE3
 72
     1
 11
6169.773000009758
 21
-4976.618000004863
 31
0.0
 73
     1
  0
TEXT
  5
860
  8
TFAS-0005
  6
CONTINUOUS
 62
     7
 10
6146.553000009758
 20
-4997.408000004863
 30
0.0
 40
20.79
  1
以下
 41
0.8451865594722736
  7
STYLE3
 72
     1
 11
6169.773000009758
 21
-5003.618000004863
 31
0.0
 73
     1
  0
LINE
  5
861
  8
TFAS-0005
  6
CONTINUOUS
 62
     7
 10
6193.773000000045
 20
-5040.117999999784
 30
0.0
 11
6193.773000000045
 21
-5005.117999999784
 31
0.0
  0
LINE
  5
862
  8
TFAS-0005
  6
CONTINUOUS
 62
     7
 10
6145.773000000045
 20
-5005.117999999784
 30
0.0
 11
6193.773000000045
 21
-5005.117999999784
 31
0.0
  0
POLYLINE
  5
863
  8
TFAS-0005
  6
CONTINUOUS
 62
     7
 66
     1
 10
0.0
 20
0.0
 30
0.0
  0
VERTEX
  5
864
  8
TFAS-0005
  6
CONTINUOUS
 62
     7
 10
6153.017443697213
 20
-5007.059142838053
 30
0.0
  0
VERTEX
  5
865
  8
TFAS-0005
  6
CONTINUOUS
 62
     7
 10
6145.773000000045
 20
-5005.117999999784
 30
0.0
  0
VERTEX
  5
866
  8
TFAS-0005
  6
CONTINUOUS
 62
     7
 10
6153.017443697213
 20
-5003.176857161515
 30
0.0
  0
SEQEND
  5
867
  8
TFAS-0005
  6
CONTINUOUS
 62
     7
  0
POLYLINE
  5
868
  8
TFAS-0005
  6
CONTINUOUS
 62
     7
 66
     1
 10
0.0
 20
0.0
 30
0.0
  0
VERTEX
  5
869
  8
TFAS-0005
  6
CONTINUOUS
 62
     7
 10
6186.528556302876
 20
-5003.176857161515
 30
0.0
  0
VERTEX
  5
86A
  8
TFAS-0005
  6
CONTINUOUS
 62
     7
 10
6193.773000000045
 20
-5005.117999999784
 30
0.0
  0
VERTEX
  5
86B
  8
TFAS-0005
  6
CONTINUOUS
 62
     7
 10
6186.528556302876
 20
-5007.059142838053
 30
0.0
  0
SEQEND
  5
86C
  8
TFAS-0005
  6
CONTINUOUS
 62
     7
  0
ENDBLK
  5
85E
  8
0
  0
BLOCK
  8
0
  2
*D16
 70
     1
 10
0.0
 20
0.0
 30
0.0
  3
*D16
  1

  0
LINE
  5
872
  8
TFAS-0005
  6
CONTINUOUS
 62
     7
 10
6193.773000000045
 20
-5040.117999999784
 30
0.0
 11
6193.773000000045
 21
-5005.117999999784
 31
0.0
  0
LINE
  5
873
  8
TFAS-0005
  6
CONTINUOUS
 62
     7
 10
6208.773000000045
 20
-5040.117999999784
 30
0.0
 11
6208.773000000045
 21
-5005.117999999784
 31
0.0
  0
LINE
  5
874
  8
TFAS-0005
  6
CONTINUOUS
 62
     7
 10
6193.773000000045
 20
-5005.117999999784
 30
0.0
 11
6284.595857142902
 21
-5005.117999999784
 31
0.0
  0
LINE
  5
876
  8
TFAS-0005
  6
CONTINUOUS
 62
     7
 10
6186.273000000045
 20
-5005.117999999784
 30
0.0
 11
6178.773000000045
 21
-5005.117999999784
 31
0.0
  0
LINE
  5
877
  8
TFAS-0005
  6
CONTINUOUS
 62
     7
 10
6216.273000000045
 20
-5005.117999999784
 30
0.0
 11
6223.773000000045
 21
-5005.117999999784
 31
0.0
  0
INSERT
  5
878
  8
TFAS-0005
 62
     7
  2
_OPEN30
 10
6193.773000000045
 20
-5005.117999999784
 30
0.0
 41
7.5
 42
7.5
 43
7.5
  0
INSERT
  5
879
  8
TFAS-0005
 62
     7
  2
_OPEN30
 10
6208.773000000045
 20
-5005.117999999784
 30
0.0
 41
7.5
 42
7.5
 43
7.5
 50
180.0
  0
POINT
  5
87B
  8
DEFPOINTS
 62
     0
 10
6193.773000000045
 20
-5040.117999999784
 30
0.0
  0
POINT
  5
87C
  8
DEFPOINTS
 62
     0
 10
6208.773000000045
 20
-5040.117999999784
 30
0.0
  0
POINT
  5
87D
  8
DEFPOINTS
 62
     0
 10
6208.773000000045
 20
-5005.117999999784
 30
0.0
  0
TEXT
  5
9E9
  8
TFAS-0005
  6
CONTINUOUS
 62
     7
 10
6208.772999998006
 20
-5000.513000000139
 30
0.0
 40
20.79
  1
0～15
 41
0.7691197691197691
  7
DIMFONT1
 72
     1
 11
6237.797999998005
 21
-4990.118000000139
 31
0.0
 73
     2
  0
ENDBLK
  5
871
  8
0
  0
BLOCK
  8
0
  2
*D17
 70
     1
 10
0.0
 20
0.0
 30
0.0
  3
*D17
  1

  0
LINE
  5
882
  8
TFAS-0005
  6
CONTINUOUS
 62
     7
 10
6788.273000000045
 20
-5208.367999999784
 30
0.0
 11
6788.273000000045
 21
-5243.367999999784
 31
0.0
  0
LINE
  5
883
  8
TFAS-0005
  6
CONTINUOUS
 62
     7
 10
6798.273000000045
 20
-5208.367999999784
 30
0.0
 11
6798.273000000045
 21
-5243.367999999784
 31
0.0
  0
LINE
  5
884
  8
TFAS-0005
  6
CONTINUOUS
 62
     7
 10
6798.273000000045
 20
-5243.367999999784
 30
0.0
 11
6716.25728571433
 21
-5243.367999999784
 31
0.0
  0
LINE
  5
886
  8
TFAS-0005
  6
CONTINUOUS
 62
     7
 10
6780.773000000045
 20
-5243.367999999784
 30
0.0
 11
6773.273000000045
 21
-5243.367999999784
 31
0.0
  0
LINE
  5
887
  8
TFAS-0005
  6
CONTINUOUS
 62
     7
 10
6805.773000000045
 20
-5243.367999999784
 30
0.0
 11
6813.273000000045
 21
-5243.367999999784
 31
0.0
  0
INSERT
  5
888
  8
TFAS-0005
 62
     7
  2
_OPEN30
 10
6788.273000000045
 20
-5243.367999999784
 30
0.0
 41
7.5
 42
7.5
 43
7.5
  0
INSERT
  5
889
  8
TFAS-0005
 62
     7
  2
_OPEN30
 10
6798.273000000045
 20
-5243.367999999784
 30
0.0
 41
7.5
 42
7.5
 43
7.5
 50
180.0
  0
POINT
  5
88B
  8
DEFPOINTS
 62
     0
 10
6788.273000000045
 20
-5208.367999999784
 30
0.0
  0
POINT
  5
88C
  8
DEFPOINTS
 62
     0
 10
6798.273000000045
 20
-5208.367999999784
 30
0.0
  0
POINT
  5
88D
  8
DEFPOINTS
 62
     0
 10
6798.273000000045
 20
-5243.367999999784
 30
0.0
  0
TEXT
  5
9EA
  8
TFAS-0005
  6
CONTINUOUS
 62
     7
 10
6718.61300000647
 20
-5238.762999998431
 30
0.0
 40
20.79
  1
10以上
 41
0.7691197691197691
  7
DIMFONT1
 72
     1
 11
6753.443000006469
 21
-5228.367999998431
 31
0.0
 73
     2
  0
ENDBLK
  5
881
  8
0
  0
BLOCK
  8
0
  2
*D18
 70
     1
 10
0.0
 20
0.0
 30
0.0
  3
*D18
  1

  0
LINE
  5
894
  8
TFAS-0005
  6
CONTINUOUS
 62
     7
 10
6798.273000000045
 20
-5208.367999999784
 30
0.0
 11
6798.273000000045
 21
-5243.367999999784
 31
0.0
  0
LINE
  5
895
  8
TFAS-0005
  6
CONTINUOUS
 62
     7
 10
6876.273000000045
 20
-5208.367999999784
 30
0.0
 11
6876.273000000045
 21
-5243.367999999784
 31
0.0
  0
LINE
  5
896
  8
TFAS-0005
  6
CONTINUOUS
 62
     7
 10
6798.273000000045
 20
-5243.367999999784
 30
0.0
 11
6876.273000000045
 21
-5243.367999999784
 31
0.0
  0
INSERT
  5
897
  8
TFAS-0005
 62
     7
  2
_OPEN30
 10
6798.273000000045
 20
-5243.367999999784
 30
0.0
 41
7.5
 42
7.5
 43
7.5
 50
180.0
  0
INSERT
  5
898
  8
TFAS-0005
 62
     7
  2
_OPEN30
 10
6876.273000000045
 20
-5243.367999999784
 30
0.0
 41
7.5
 42
7.5
 43
7.5
  0
POINT
  5
89A
  8
DEFPOINTS
 62
     0
 10
6798.273000000045
 20
-5208.367999999784
 30
0.0
  0
POINT
  5
89B
  8
DEFPOINTS
 62
     0
 10
6876.273000000045
 20
-5208.367999999784
 30
0.0
  0
POINT
  5
89C
  8
DEFPOINTS
 62
     0
 10
6876.273000000045
 20
-5243.367999999784
 30
0.0
  0
TEXT
  5
9EB
  8
TFAS-0005
  6
CONTINUOUS
 62
     7
 10
6796.739999989883
 20
-5238.763000004315
 30
0.0
 40
20.79
  1
φ78以下
 41
0.6507936507936506
  7
DIMFONT2
 72
     1
 11
6836.264999989882
 21
-5228.368000004314
 31
0.0
 73
     2
  0
ENDBLK
  5
893
  8
0
  0
BLOCK
  8
0
  2
*D19
 70
     1
 10
0.0
 20
0.0
 30
0.0
  3
*D19
  1

  0
LINE
  5
8A1
  8
TFAS-0005
  6
CONTINUOUS
 62
     7
 10
6876.273000000045
 20
-5208.367999999784
 30
0.0
 11
6876.273000000045
 21
-5243.367999999784
 31
0.0
  0
LINE
  5
8A2
  8
TFAS-0005
  6
CONTINUOUS
 62
     7
 10
6886.273000000045
 20
-5208.367999999784
 30
0.0
 11
6886.273000000045
 21
-5243.367999999784
 31
0.0
  0
LINE
  5
8A3
  8
TFAS-0005
  6
CONTINUOUS
 62
     7
 10
6876.273000000045
 20
-5243.367999999784
 30
0.0
 11
6958.28871428576
 21
-5243.367999999784
 31
0.0
  0
LINE
  5
8A5
  8
TFAS-0005
  6
CONTINUOUS
 62
     7
 10
6868.773000000045
 20
-5243.367999999784
 30
0.0
 11
6861.273000000045
 21
-5243.367999999784
 31
0.0
  0
LINE
  5
8A6
  8
TFAS-0005
  6
CONTINUOUS
 62
     7
 10
6893.773000000045
 20
-5243.367999999784
 30
0.0
 11
6901.273000000045
 21
-5243.367999999784
 31
0.0
  0
INSERT
  5
8A7
  8
TFAS-0005
 62
     7
  2
_OPEN30
 10
6876.273000000045
 20
-5243.367999999784
 30
0.0
 41
7.5
 42
7.5
 43
7.5
  0
INSERT
  5
8A8
  8
TFAS-0005
 62
     7
  2
_OPEN30
 10
6886.273000000045
 20
-5243.367999999784
 30
0.0
 41
7.5
 42
7.5
 43
7.5
 50
180.0
  0
POINT
  5
8AA
  8
DEFPOINTS
 62
     0
 10
6876.273000000045
 20
-5208.367999999784
 30
0.0
  0
POINT
  5
8AB
  8
DEFPOINTS
 62
     0
 10
6886.273000000045
 20
-5208.367999999784
 30
0.0
  0
POINT
  5
8AC
  8
DEFPOINTS
 62
     0
 10
6886.273000000045
 20
-5243.367999999784
 30
0.0
  0
TEXT
  5
9EC
  8
TFAS-0005
  6
CONTINUOUS
 62
     7
 10
6886.272999998781
 20
-5238.762999999539
 30
0.0
 40
20.79
  1
10以上
 41
0.7691197691197691
  7
DIMFONT1
 72
     1
 11
6921.102999998781
 21
-5228.367999999538
 31
0.0
 73
     2
  0
ENDBLK
  5
8A0
  8
0
  0
BLOCK
  8
0
  2
*D20
 70
     1
 10
0.0
 20
0.0
 30
0.0
  3
*D20
  1

  0
LINE
  5
8B2
  8
TFAS-0005
  6
CONTINUOUS
 62
     7
 10
6970.523000000045
 20
-5114.117999999784
 30
0.0
 11
7005.523000000045
 21
-5114.117999999784
 31
0.0
  0
LINE
  5
8B3
  8
TFAS-0005
  6
CONTINUOUS
 62
     7
 10
6970.523000000045
 20
-5099.117999999784
 30
0.0
 11
7005.523000000045
 21
-5099.117999999784
 31
0.0
  0
LINE
  5
8B4
  8
TFAS-0005
  6
CONTINUOUS
 62
     7
 10
7005.523000000045
 20
-5114.117999999784
 30
0.0
 11
7005.523000000045
 21
-5114.117999999784
 31
0.0
  0
LINE
  5
8B6
  8
TFAS-0005
  6
CONTINUOUS
 62
     7
 10
7005.523000000045
 20
-5121.617999999784
 30
0.0
 11
7005.523000000045
 21
-5129.117999999784
 31
0.0
  0
LINE
  5
8B7
  8
TFAS-0005
  6
CONTINUOUS
 62
     7
 10
7005.523000000045
 20
-5091.617999999784
 30
0.0
 11
7005.523000000045
 21
-5084.117999999784
 31
0.0
  0
INSERT
  5
8B8
  8
TFAS-0005
 62
     7
  2
_OPEN30
 10
7005.523000000045
 20
-5114.117999999784
 30
0.0
 41
7.5
 42
7.5
 43
7.5
 50
90.0
  0
INSERT
  5
8B9
  8
TFAS-0005
 62
     7
  2
_OPEN30
 10
7005.523000000045
 20
-5099.117999999784
 30
0.0
 41
7.5
 42
7.5
 43
7.5
 50
270.0
  0
POINT
  5
8BB
  8
DEFPOINTS
 62
     0
 10
6970.523000000045
 20
-5114.117999999784
 30
0.0
  0
POINT
  5
8BC
  8
DEFPOINTS
 62
     0
 10
6970.523000000045
 20
-5099.117999999784
 30
0.0
  0
POINT
  5
8BD
  8
DEFPOINTS
 62
     0
 10
7005.523000000045
 20
-5099.117999999784
 30
0.0
  0
TEXT
  5
9ED
  8
TFAS-0005
  6
CONTINUOUS
 62
     7
 10
7000.918000008319
 20
-5172.167999992362
 30
0.0
 40
20.79
  1
0～15
 50
90.0
 41
0.7691197691197691
  7
DIMFONT1
 72
     1
 11
6990.523000008318
 21
-5143.142999992361
 31
0.0
 73
     2
  0
ENDBLK
  5
8B1
  8
0
  0
BLOCK
  8
0
  2
INS-D926F
 70
     0
 10
0.0
 20
0.0
 30
0.0
  3
INS-D926F
  1

  0
TEXT
  5
8C1
  8
TFAS-0005
  6
CONTINUOUS
 62
     7
 10
6970.813000005449
 20
-5098.338000000981
 30
0.0
 40
20.79
  1
φ48
 50
90.0
 41
0.8182125203401801
  7
STYLE3
 72
     1
 11
6977.023000005449
 21
-5075.118000000981
 31
0.0
 73
     1
  0
TEXT
  5
8C2
  8
TFAS-0005
  6
CONTINUOUS
 62
     7
 10
6997.813000005449
 20
-5098.338000000981
 30
0.0
 40
20.79
  1
以下
 50
90.0
 41
0.8451865594722736
  7
STYLE3
 72
     1
 11
7004.023000005449
 21
-5075.118000000981
 31
0.0
 73
     1
  0
LINE
  5
8C3
  8
TFAS-0005
  6
CONTINUOUS
 62
     7
 10
6970.523000000045
 20
-5051.117999999784
 30
0.0
 11
7005.523000000045
 21
-5051.117999999784
 31
0.0
  0
LINE
  5
8C4
  8
TFAS-0005
  6
CONTINUOUS
 62
     7
 10
7005.523000000045
 20
-5099.117999999784
 30
0.0
 11
7005.523000000045
 21
-5051.117999999784
 31
0.0
  0
POLYLINE
  5
8C5
  8
TFAS-0005
  6
CONTINUOUS
 62
     7
 66
     1
 10
0.0
 20
0.0
 30
0.0
  0
VERTEX
  5
8C6
  8
TFAS-0005
  6
CONTINUOUS
 62
     7
 10
7007.464142838314
 20
-5091.873556302616
 30
0.0
  0
VERTEX
  5
8C7
  8
TFAS-0005
  6
CONTINUOUS
 62
     7
 10
7005.523000000045
 20
-5099.117999999784
 30
0.0
  0
VERTEX
  5
8C8
  8
TFAS-0005
  6
CONTINUOUS
 62
     7
 10
7003.581857161776
 20
-5091.873556302616
 30
0.0
  0
SEQEND
  5
8C9
  8
TFAS-0005
  6
CONTINUOUS
 62
     7
  0
POLYLINE
  5
8CA
  8
TFAS-0005
  6
CONTINUOUS
 62
     7
 66
     1
 10
0.0
 20
0.0
 30
0.0
  0
VERTEX
  5
8CB
  8
TFAS-0005
  6
CONTINUOUS
 62
     7
 10
7003.581857161776
 20
-5058.362443696952
 30
0.0
  0
VERTEX
  5
8CC
  8
TFAS-0005
  6
CONTINUOUS
 62
     7
 10
7005.523000000045
 20
-5051.117999999784
 30
0.0
  0
VERTEX
  5
8CD
  8
TFAS-0005
  6
CONTINUOUS
 62
     7
 10
7007.464142838314
 20
-5058.362443696952
 30
0.0
  0
SEQEND
  5
8CE
  8
TFAS-0005
  6
CONTINUOUS
 62
     7
  0
ENDBLK
  5
8C0
  8
0
  0
BLOCK
  8
0
  2
*D22
 70
     1
 10
0.0
 20
0.0
 30
0.0
  3
*D22
  1

  0
LINE
  5
8D4
  8
TFAS-0005
  6
CONTINUOUS
 62
     7
 10
6970.523000000045
 20
-5051.117999999784
 30
0.0
 11
7005.523000000045
 21
-5051.117999999784
 31
0.0
  0
LINE
  5
8D5
  8
TFAS-0005
  6
CONTINUOUS
 62
     7
 10
6970.523000000045
 20
-5036.117999999784
 30
0.0
 11
7005.523000000045
 21
-5036.117999999784
 31
0.0
  0
LINE
  5
8D6
  8
TFAS-0005
  6
CONTINUOUS
 62
     7
 10
7005.523000000045
 20
-5036.117999999784
 30
0.0
 11
7005.523000000045
 21
-5051.117999999784
 31
0.0
  0
LINE
  5
8D8
  8
TFAS-0005
  6
CONTINUOUS
 62
     7
 10
7005.523000000045
 20
-5058.617999999784
 30
0.0
 11
7005.523000000045
 21
-5066.117999999784
 31
0.0
  0
LINE
  5
8D9
  8
TFAS-0005
  6
CONTINUOUS
 62
     7
 10
7005.523000000045
 20
-5028.617999999784
 30
0.0
 11
7005.523000000045
 21
-5021.117999999784
 31
0.0
  0
INSERT
  5
8DA
  8
TFAS-0005
 62
     7
  2
_OPEN30
 10
7005.523000000045
 20
-5051.117999999784
 30
0.0
 41
7.5
 42
7.5
 43
7.5
 50
90.0
  0
INSERT
  5
8DB
  8
TFAS-0005
 62
     7
  2
_OPEN30
 10
7005.523000000045
 20
-5036.117999999784
 30
0.0
 41
7.5
 42
7.5
 43
7.5
 50
270.0
  0
POINT
  5
8DD
  8
DEFPOINTS
 62
     0
 10
6970.523000000045
 20
-5051.117999999784
 30
0.0
  0
POINT
  5
8DE
  8
DEFPOINTS
 62
     0
 10
6970.523000000045
 20
-5036.117999999784
 30
0.0
  0
POINT
  5
8DF
  8
DEFPOINTS
 62
     0
 10
7005.523000000045
 20
-5036.117999999784
 30
0.0
  0
TEXT
  5
9EE
  8
TFAS-0005
  6
CONTINUOUS
 62
     7
 10
7000.917999997143
 20
-5036.118000002131
 30
0.0
 40
20.79
  1
0～15
 50
90.0
 41
0.7691197691197691
  7
DIMFONT1
 72
     1
 11
6990.522999997143
 21
-5007.093000002131
 31
0.0
 73
     2
  0
ENDBLK
  5
8D3
  8
0
  0
BLOCK
  8
0
  2
*D23
 70
     1
 10
0.0
 20
0.0
 30
0.0
  3
*D23
  1

  0
LINE
  5
8E4
  8
TFAS-0005
  6
CONTINUOUS
 62
     7
 10
6970.523000000045
 20
-4880.617999999784
 30
0.0
 11
7005.523000000045
 21
-4880.617999999784
 31
0.0
  0
LINE
  5
8E5
  8
TFAS-0005
  6
CONTINUOUS
 62
     7
 10
6970.523000000045
 20
-4865.617999999784
 30
0.0
 11
7005.523000000045
 21
-4865.617999999784
 31
0.0
  0
LINE
  5
8E6
  8
TFAS-0005
  6
CONTINUOUS
 62
     7
 10
7005.523000000045
 20
-4880.617999999784
 30
0.0
 11
7005.523000000045
 21
-4880.617999999784
 31
0.0
  0
LINE
  5
8E8
  8
TFAS-0005
  6
CONTINUOUS
 62
     7
 10
7005.523000000045
 20
-4888.117999999784
 30
0.0
 11
7005.523000000045
 21
-4895.617999999784
 31
0.0
  0
LINE
  5
8E9
  8
TFAS-0005
  6
CONTINUOUS
 62
     7
 10
7005.523000000045
 20
-4858.117999999784
 30
0.0
 11
7005.523000000045
 21
-4850.617999999784
 31
0.0
  0
INSERT
  5
8EA
  8
TFAS-0005
 62
     7
  2
_OPEN30
 10
7005.523000000045
 20
-4880.617999999784
 30
0.0
 41
7.5
 42
7.5
 43
7.5
 50
90.0
  0
INSERT
  5
8EB
  8
TFAS-0005
 62
     7
  2
_OPEN30
 10
7005.523000000045
 20
-4865.617999999784
 30
0.0
 41
7.5
 42
7.5
 43
7.5
 50
270.0
  0
POINT
  5
8ED
  8
DEFPOINTS
 62
     0
 10
6970.523000000045
 20
-4880.617999999784
 30
0.0
  0
POINT
  5
8EE
  8
DEFPOINTS
 62
     0
 10
6970.523000000045
 20
-4865.617999999784
 30
0.0
  0
POINT
  5
8EF
  8
DEFPOINTS
 62
     0
 10
7005.523000000045
 20
-4865.617999999784
 30
0.0
  0
TEXT
  5
9EF
  8
TFAS-0005
  6
CONTINUOUS
 62
     7
 10
7000.917999983373
 20
-4938.667999995698
 30
0.0
 40
20.79
  1
2～15
 50
90.0
 41
0.7691197691197691
  7
DIMFONT1
 72
     1
 11
6990.522999983373
 21
-4909.642999995697
 31
0.0
 73
     2
  0
ENDBLK
  5
8E3
  8
0
  0
BLOCK
  8
0
  2
INS-D7F8D
 70
     0
 10
0.0
 20
0.0
 30
0.0
  3
INS-D7F8D
  1

  0
TEXT
  5
8F3
  8
TFAS-0005
  6
CONTINUOUS
 62
     7
 10
6970.812999997436
 20
-4864.838000002419
 30
0.0
 40
20.79
  1
φ48
 50
90.0
 41
0.8182125203401801
  7
STYLE3
 72
     1
 11
6977.022999997436
 21
-4841.618000002419
 31
0.0
 73
     1
  0
TEXT
  5
8F4
  8
TFAS-0005
  6
CONTINUOUS
 62
     7
 10
6997.812999997436
 20
-4864.838000002419
 30
0.0
 40
20.79
  1
以下
 50
90.0
 41
0.8451865594722736
  7
STYLE3
 72
     1
 11
7004.022999997436
 21
-4841.618000002419
 31
0.0
 73
     1
  0
LINE
  5
8F5
  8
TFAS-0005
  6
CONTINUOUS
 62
     7
 10
6970.523000000045
 20
-4817.617999999784
 30
0.0
 11
7005.523000000045
 21
-4817.617999999784
 31
0.0
  0
LINE
  5
8F6
  8
TFAS-0005
  6
CONTINUOUS
 62
     7
 10
7005.523000000045
 20
-4865.617999999784
 30
0.0
 11
7005.523000000045
 21
-4817.617999999784
 31
0.0
  0
POLYLINE
  5
8F7
  8
TFAS-0005
  6
CONTINUOUS
 62
     7
 66
     1
 10
0.0
 20
0.0
 30
0.0
  0
VERTEX
  5
8F8
  8
TFAS-0005
  6
CONTINUOUS
 62
     7
 10
7007.464142838314
 20
-4858.373556302616
 30
0.0
  0
VERTEX
  5
8F9
  8
TFAS-0005
  6
CONTINUOUS
 62
     7
 10
7005.523000000045
 20
-4865.617999999784
 30
0.0
  0
VERTEX
  5
8FA
  8
TFAS-0005
  6
CONTINUOUS
 62
     7
 10
7003.581857161776
 20
-4858.373556302616
 30
0.0
  0
SEQEND
  5
8FB
  8
TFAS-0005
  6
CONTINUOUS
 62
     7
  0
POLYLINE
  5
8FC
  8
TFAS-0005
  6
CONTINUOUS
 62
     7
 66
     1
 10
0.0
 20
0.0
 30
0.0
  0
VERTEX
  5
8FD
  8
TFAS-0005
  6
CONTINUOUS
 62
     7
 10
7003.581857161776
 20
-4824.862443696952
 30
0.0
  0
VERTEX
  5
8FE
  8
TFAS-0005
  6
CONTINUOUS
 62
     7
 10
7005.523000000045
 20
-4817.617999999784
 30
0.0
  0
VERTEX
  5
8FF
  8
TFAS-0005
  6
CONTINUOUS
 62
     7
 10
7007.464142838314
 20
-4824.862443696952
 30
0.0
  0
SEQEND
  5
900
  8
TFAS-0005
  6
CONTINUOUS
 62
     7
  0
ENDBLK
  5
8F2
  8
0
  0
BLOCK
  8
0
  2
*D25
 70
     1
 10
0.0
 20
0.0
 30
0.0
  3
*D25
  1

  0
LINE
  5
906
  8
TFAS-0005
  6
CONTINUOUS
 62
     7
 10
6970.523000000045
 20
-4817.617999999784
 30
0.0
 11
7005.523000000045
 21
-4817.617999999784
 31
0.0
  0
LINE
  5
907
  8
TFAS-0005
  6
CONTINUOUS
 62
     7
 10
6970.523000000045
 20
-4802.617999999784
 30
0.0
 11
7005.523000000045
 21
-4802.617999999784
 31
0.0
  0
LINE
  5
908
  8
TFAS-0005
  6
CONTINUOUS
 62
     7
 10
7005.523000000045
 20
-4802.617999999784
 30
0.0
 11
7005.523000000045
 21
-4817.617999999784
 31
0.0
  0
LINE
  5
90A
  8
TFAS-0005
  6
CONTINUOUS
 62
     7
 10
7005.523000000045
 20
-4825.117999999784
 30
0.0
 11
7005.523000000045
 21
-4832.617999999784
 31
0.0
  0
LINE
  5
90B
  8
TFAS-0005
  6
CONTINUOUS
 62
     7
 10
7005.523000000045
 20
-4795.117999999784
 30
0.0
 11
7005.523000000045
 21
-4787.617999999784
 31
0.0
  0
INSERT
  5
90C
  8
TFAS-0005
 62
     7
  2
_OPEN30
 10
7005.523000000045
 20
-4817.617999999784
 30
0.0
 41
7.5
 42
7.5
 43
7.5
 50
90.0
  0
INSERT
  5
90D
  8
TFAS-0005
 62
     7
  2
_OPEN30
 10
7005.523000000045
 20
-4802.617999999784
 30
0.0
 41
7.5
 42
7.5
 43
7.5
 50
270.0
  0
POINT
  5
90F
  8
DEFPOINTS
 62
     0
 10
6970.523000000045
 20
-4817.617999999784
 30
0.0
  0
POINT
  5
910
  8
DEFPOINTS
 62
     0
 10
6970.523000000045
 20
-4802.617999999784
 30
0.0
  0
POINT
  5
911
  8
DEFPOINTS
 62
     0
 10
7005.523000000045
 20
-4802.617999999784
 30
0.0
  0
TEXT
  5
9F0
  8
TFAS-0005
  6
CONTINUOUS
 62
     7
 10
7000.917999995182
 20
-4802.617999993174
 30
0.0
 40
20.79
  1
2～15
 50
90.0
 41
0.7691197691197691
  7
DIMFONT1
 72
     1
 11
6990.522999995182
 21
-4773.592999993173
 31
0.0
 73
     2
  0
ENDBLK
  5
905
  8
0
  0
BLOCK
  8
0
  2
*D26
 70
     1
 10
0.0
 20
0.0
 30
0.0
  3
*D26
  1

  0
LINE
  5
918
  8
TFAS-0005
  6
CONTINUOUS
 62
     7
 10
6970.523000000045
 20
-5114.117999999784
 30
0.0
 11
7075.523000000045
 21
-5114.117999999784
 31
0.0
  0
LINE
  5
919
  8
TFAS-0005
  6
CONTINUOUS
 62
     7
 10
6970.523000000045
 20
-5036.117999999784
 30
0.0
 11
7075.523000000045
 21
-5036.117999999784
 31
0.0
  0
LINE
  5
91A
  8
TFAS-0005
  6
CONTINUOUS
 62
     7
 10
7075.523000000045
 20
-5114.117999999784
 30
0.0
 11
7075.523000000045
 21
-5036.117999999784
 31
0.0
  0
INSERT
  5
91B
  8
TFAS-0005
 62
     7
  2
_OPEN30
 10
7075.523000000045
 20
-5114.117999999784
 30
0.0
 41
7.5
 42
7.5
 43
7.5
 50
270.0
  0
INSERT
  5
91C
  8
TFAS-0005
 62
     7
  2
_OPEN30
 10
7075.523000000045
 20
-5036.117999999784
 30
0.0
 41
7.5
 42
7.5
 43
7.5
 50
90.0
  0
POINT
  5
91E
  8
DEFPOINTS
 62
     0
 10
6970.523000000045
 20
-5114.117999999784
 30
0.0
  0
POINT
  5
91F
  8
DEFPOINTS
 62
     0
 10
6970.523000000045
 20
-5036.117999999784
 30
0.0
  0
POINT
  5
920
  8
DEFPOINTS
 62
     0
 10
7075.523000000045
 20
-5036.117999999784
 30
0.0
  0
TEXT
  5
9F1
  8
TFAS-0005
  6
CONTINUOUS
 62
     7
 10
7070.917999989853
 20
-5115.389000013505
 30
0.0
 40
20.79
  1
φ78以下
 50
90.0
 41
0.6507936507936507
  7
DIMFONT3
 72
     1
 11
7060.522999989853
 21
-5076.014000013505
 31
0.0
 73
     2
  0
ENDBLK
  5
917
  8
0
  0
BLOCK
  8
0
  2
*D27
 70
     1
 10
0.0
 20
0.0
 30
0.0
  3
*D27
  1

  0
LINE
  5
926
  8
TFAS-0005
  6
CONTINUOUS
 62
     7
 10
6970.523000000045
 20
-4880.617999999784
 30
0.0
 11
7075.523000000045
 21
-4880.617999999784
 31
0.0
  0
LINE
  5
927
  8
TFAS-0005
  6
CONTINUOUS
 62
     7
 10
6970.523000000045
 20
-4802.617999999784
 30
0.0
 11
7075.523000000045
 21
-4802.617999999784
 31
0.0
  0
LINE
  5
928
  8
TFAS-0005
  6
CONTINUOUS
 62
     7
 10
7075.523000000045
 20
-4880.617999999784
 30
0.0
 11
7075.523000000045
 21
-4802.617999999784
 31
0.0
  0
INSERT
  5
929
  8
TFAS-0005
 62
     7
  2
_OPEN30
 10
7075.523000000045
 20
-4880.617999999784
 30
0.0
 41
7.5
 42
7.5
 43
7.5
 50
270.0
  0
INSERT
  5
92A
  8
TFAS-0005
 62
     7
  2
_OPEN30
 10
7075.523000000045
 20
-4802.617999999784
 30
0.0
 41
7.5
 42
7.5
 43
7.5
 50
90.0
  0
POINT
  5
92C
  8
DEFPOINTS
 62
     0
 10
6970.523000000045
 20
-4880.617999999784
 30
0.0
  0
POINT
  5
92D
  8
DEFPOINTS
 62
     0
 10
6970.523000000045
 20
-4802.617999999784
 30
0.0
  0
POINT
  5
92E
  8
DEFPOINTS
 62
     0
 10
7075.523000000045
 20
-4802.617999999784
 30
0.0
  0
TEXT
  5
9F2
  8
TFAS-0005
  6
CONTINUOUS
 62
     7
 10
7070.918000013116
 20
-4882.225000002712
 30
0.0
 40
20.79
  1
φ78以下
 50
90.0
 41
0.6507936507936507
  7
DIMFONT3
 72
     1
 11
7060.523000013116
 21
-4842.850000002712
 31
0.0
 73
     2
  0
ENDBLK
  5
925
  8
0
  0
BLOCK
  8
0
  2
INS-GGSIM
 70
     0
 10
0.0
 20
0.0
 30
0.0
  3
INS-GGSIM
  1

  0
POLYLINE
  5
934
  8
TFAS-0005
  6
CONTINUOUS
 62
     7
 66
     1
 10
0.0
 20
0.0
 30
0.0
  0
VERTEX
  5
935
  8
TFAS-0005
  6
CONTINUOUS
 62
     7
 10
110.5270000000446
 20
36.99200000026758
 30
0.0
  0
VERTEX
  5
936
  8
TFAS-0005
  6
CONTINUOUS
 62
     7
 10
55.28322427714556
 20
-36.99198670710211
 30
0.0
  0
VERTEX
  5
937
  8
TFAS-0005
  6
CONTINUOUS
 62
     7
 10
-110.5267757228548
 20
-36.99198670710211
 30
0.0
  0
SEQEND
  5
938
  8
TFAS-0005
  6
CONTINUOUS
 62
     7
  0
TEXT
  5
939
  8
TFAS-0005
  6
CONTINUOUS
 62
     7
 10
-109.0267757257807
 20
-29.28198669304496
 30
0.0
 40
20.79
  1
熱膨張性シート1
 41
0.786823293217155
  7
STYLE3
 11
-109.0267757257807
 21
-35.49198669304496
 31
0.0
 73
     1
  0
ENDBLK
  5
932
  8
0
  0
BLOCK
  8
0
  2
INS-G57E1
 70
     0
 10
0.0
 20
0.0
 30
0.0
  3
INS-G57E1
  1

  0
POLYLINE
  5
93E
  8
TFAS-0005
  6
CONTINUOUS
 62
     7
 66
     1
 10
0.0
 20
0.0
 30
0.0
  0
VERTEX
  5
93F
  8
TFAS-0005
  6
CONTINUOUS
 62
     7
 10
103.5447242772425
 20
36.95450000021629
 30
0.0
  0
VERTEX
  5
940
  8
TFAS-0005
  6
CONTINUOUS
 62
     7
 10
62.26572427714564
 20
-36.95449999930315
 30
0.0
  0
VERTEX
  5
941
  8
TFAS-0005
  6
CONTINUOUS
 62
     7
 10
-103.5442757228548
 20
-36.95449999930315
 30
0.0
  0
SEQEND
  5
942
  8
TFAS-0005
  6
CONTINUOUS
 62
     7
  0
TEXT
  5
943
  8
TFAS-0005
  6
CONTINUOUS
 62
     7
 10
-102.0442757334922
 20
-29.24450000599339
 30
0.0
 40
20.79
  1
熱膨張性シート2
 41
0.786823293217155
  7
STYLE3
 11
-102.0442757334922
 21
-35.4545000059934
 31
0.0
 73
     1
  0
ENDBLK
  5
93C
  8
0
  0
BLOCK
  8
0
  2
INS-G7FBI
 70
     0
 10
0.0
 20
0.0
 30
0.0
  3
INS-G7FBI
  1

  0
POLYLINE
  5
948
  8
TFAS-0005
  6
CONTINUOUS
 62
     7
 66
     1
 10
0.0
 20
0.0
 30
0.0
  0
VERTEX
  5
949
  8
TFAS-0005
  6
CONTINUOUS
 62
     7
 10
-54.28293293811294
 20
28.70869082215813
 30
0.0
  0
VERTEX
  5
94A
  8
TFAS-0005
  6
CONTINUOUS
 62
     7
 10
-18.37668227046379
 20
-28.70720736190651
 30
0.0
  0
VERTEX
  5
94B
  8
TFAS-0005
  6
CONTINUOUS
 62
     7
 10
54.28331772953607
 20
-28.70720736190651
 30
0.0
  0
SEQEND
  5
94C
  8
TFAS-0005
  6
CONTINUOUS
 62
     7
  0
TEXT
  5
94D
  8
TFAS-0005
  6
CONTINUOUS
 62
     7
 10
-16.87668230507097
 20
-20.99720736141357
 30
0.0
 40
20.79
  1
留付材
 41
0.8182125203401801
  7
STYLE3
 11
-16.87668230507097
 21
-27.20720736141357
 31
0.0
 73
     1
  0
ENDBLK
  5
946
  8
0
  0
BLOCK
  8
0
  2
INS-G4NB7
 70
     0
 10
0.0
 20
0.0
 30
0.0
  3
INS-G4NB7
  1

  0
POLYLINE
  5
952
  8
TFAS-0005
  6
CONTINUOUS
 62
     7
 66
     1
 10
0.0
 20
0.0
 30
0.0
  0
VERTEX
  5
953
  8
TFAS-0005
  6
CONTINUOUS
 62
     7
 10
-110.1044999998503
 20
49.77250000028653
 30
0.0
  0
VERTEX
  5
954
  8
TFAS-0005
  6
CONTINUOUS
 62
     7
 10
-31.40540654766028
 20
-49.77170736242897
 30
0.0
  0
VERTEX
  5
955
  8
TFAS-0005
  6
CONTINUOUS
 62
     7
 10
110.1045934523399
 20
-49.77170736242897
 30
0.0
  0
SEQEND
  5
956
  8
TFAS-0005
  6
CONTINUOUS
 62
     7
  0
TEXT
  5
957
  8
TFAS-0005
  6
CONTINUOUS
 62
     7
 10
-29.90540654874985
 20
-15.06170735944583
 30
0.0
 40
20.79
  1
固定材
 41
0.8182125203401801
  7
STYLE3
 11
-29.90540654874985
 21
-21.27170735944583
 31
0.0
 73
     1
  0
TEXT
  5
958
  8
TFAS-0005
  6
CONTINUOUS
 62
     7
 10
-29.90540654874985
 20
-42.06170735944583
 30
0.0
 40
20.79
  1
(あり又はなし)
 41
0.786823293217155
  7
STYLE3
 11
-29.90540654874985
 21
-48.27170735944583
 31
0.0
 73
     1
  0
ENDBLK
  5
950
  8
0
  0
BLOCK
  8
0
  2
INS-G4OQA
 70
     0
 10
0.0
 20
0.0
 30
0.0
  3
INS-G4OQA
  1

  0
POLYLINE
  5
95D
  8
TFAS-0005
  6
CONTINUOUS
 62
     7
 66
     1
 10
0.0
 20
0.0
 30
0.0
  0
VERTEX
  5
95E
  8
TFAS-0005
  6
CONTINUOUS
 62
     7
 10
-146.2829999999558
 20
-61.56899999988491
 30
0.0
  0
VERTEX
  5
95F
  8
TFAS-0005
  6
CONTINUOUS
 62
     7
 10
-95.12634032673304
 20
33.07000000008156
 30
0.0
  0
VERTEX
  5
960
  8
TFAS-0005
  6
CONTINUOUS
 62
     7
 10
146.2836596732668
 20
33.07000000008156
 30
0.0
  0
SEQEND
  5
961
  8
TFAS-0005
  6
CONTINUOUS
 62
     7
  0
TEXT
  5
962
  8
TFAS-0005
  6
CONTINUOUS
 62
     7
 10
-93.62634031592552
 20
40.77999999980326
 30
0.0
 40
20.79
  1
配管(被覆材:10mm以下)
 41
0.7791372480229207
  7
STYLE3
 11
-93.62634031592552
 21
34.56999999980326
 31
0.0
 73
     1
  0
ENDBLK
  5
95B
  8
0
  0
BLOCK
  8
0
  2
INS-G8TAZ
 70
     0
 10
0.0
 20
0.0
 30
0.0
  3
INS-G8TAZ
  1

  0
POLYLINE
  5
967
  8
TFAS-0005
  6
CONTINUOUS
 62
     7
 66
     1
 10
0.0
 20
0.0
 30
0.0
  0
VERTEX
  5
968
  8
TFAS-0005
  6
CONTINUOUS
 62
     7
 10
101.864642598609
 20
49.43829263682255
 30
0.0
  0
VERTEX
  5
969
  8
TFAS-0005
  6
CONTINUOUS
 62
     7
 10
41.53690654825277
 20
-49.4369147256657
 30
0.0
  0
VERTEX
  5
96A
  8
TFAS-0005
  6
CONTINUOUS
 62
     7
 10
-101.8630934517469
 20
-49.4369147256657
 30
0.0
  0
SEQEND
  5
96B
  8
TFAS-0005
  6
CONTINUOUS
 62
     7
  0
TEXT
  5
96C
  8
TFAS-0005
  6
CONTINUOUS
 62
     7
 10
-100.363093444229
 20
-14.72691471653983
 30
0.0
 40
20.79
  1
バックアップ材
 41
0.7894191178648655
  7
STYLE3
 11
-100.363093444229
 21
-20.93691471653983
 31
0.0
 73
     1
  0
TEXT
  5
96D
  8
TFAS-0005
  6
CONTINUOUS
 62
     7
 10
-100.363093444229
 20
-41.72691471653983
 30
0.0
 40
20.79
  1
(あり又はなし)
 41
0.786823293217155
  7
STYLE3
 11
-100.363093444229
 21
-47.93691471653983
 31
0.0
 73
     1
  0
ENDBLK
  5
965
  8
0
  0
BLOCK
  8
0
  2
INS-GAXQ9
 70
     0
 10
0.0
 20
0.0
 30
0.0
  3
INS-GAXQ9
  1

  0
POLYLINE
  5
972
  8
TFAS-0005
  6
CONTINUOUS
 62
     7
 66
     1
 10
0.0
 20
0.0
 30
0.0
  0
VERTEX
  5
973
  8
TFAS-0005
  6
CONTINUOUS
 62
     7
 10
-83.76149999983318
 20
-31.9900000000107
 30
0.0
  0
VERTEX
  5
974
  8
TFAS-0005
  6
CONTINUOUS
 62
     7
 10
-9.148111425196475
 20
3.489999999970678
 30
0.0
  0
VERTEX
  5
975
  8
TFAS-0005
  6
CONTINUOUS
 62
     7
 10
83.76188857480338
 20
3.489999999970678
 30
0.0
  0
SEQEND
  5
976
  8
TFAS-0005
  6
CONTINUOUS
 62
     7
  0
TEXT
  5
977
  8
TFAS-0005
  6
CONTINUOUS
 62
     7
 10
-7.648111422601687
 20
11.20000001659624
 30
0.0
 40
20.79
  1
充てん材
 41
0.8053610147850986
  7
STYLE3
 11
-7.648111422601687
 21
4.990000016596241
 31
0.0
 73
     1
  0
ENDBLK
  5
970
  8
0
  0
BLOCK
  8
0
  2
INS-G8YPS
 70
     0
 10
0.0
 20
0.0
 30
0.0
  3
INS-G8YPS
  1

  0
POLYLINE
  5
97C
  8
TFAS-0005
  6
CONTINUOUS
 62
     7
 66
     1
 10
0.0
 20
0.0
 30
0.0
  0
VERTEX
  5
97D
  8
TFAS-0005
  6
CONTINUOUS
 62
     7
 10
18.84400000003734
 20
-49.35849999969469
 30
0.0
  0
VERTEX
  5
97E
  8
TFAS-0005
  6
CONTINUOUS
 62
     7
 10
36.33053184434448
 20
20.85880704926331
 30
0.0
  0
VERTEX
  5
97F
  8
TFAS-0005
  6
CONTINUOUS
 62
     7
 10
-36.32946815565538
 20
20.85880704926331
 30
0.0
  0
SEQEND
  5
980
  8
TFAS-0005
  6
CONTINUOUS
 62
     7
  0
TEXT
  5
981
  8
TFAS-0005
  6
CONTINUOUS
 62
     7
 10
-34.82946813810031
 20
28.56880704380907
 30
0.0
 40
20.79
  1
中空床
 41
0.8182125203401801
  7
STYLE3
 11
-34.82946813810031
 21
22.35880704380907
 31
0.0
 73
     1
  0
ENDBLK
  5
97A
  8
0
  0
BLOCK
  8
0
  2
INS-G5PDO
 70
     0
 10
0.0
 20
0.0
 30
0.0
  3
INS-G5PDO
  1

  0
POLYLINE
  5
986
  8
TFAS-0005
  6
CONTINUOUS
 62
     7
 66
     1
 10
0.0
 20
0.0
 30
0.0
  0
VERTEX
  5
987
  8
TFAS-0005
  6
CONTINUOUS
 62
     7
 10
-56.69499999991422
 20
28.16049999976531
 30
0.0
  0
VERTEX
  5
988
  8
TFAS-0005
  6
CONTINUOUS
 62
     7
 10
-36.21499999993284
 20
-28.15950000006706
 30
0.0
  0
VERTEX
  5
989
  8
TFAS-0005
  6
CONTINUOUS
 62
     7
 10
56.69500000006701
 20
-28.15950000006706
 30
0.0
  0
SEQEND
  5
98A
  8
TFAS-0005
  6
CONTINUOUS
 62
     7
  0
TEXT
  5
98B
  8
TFAS-0005
  6
CONTINUOUS
 62
     7
 10
-34.71500000230844
 20
-20.44949999709664
 30
0.0
 40
20.79
  1
充てん材
 41
0.8053610147850986
  7
STYLE3
 11
-34.71500000230844
 21
-26.65949999709665
 31
0.0
 73
     1
  0
ENDBLK
  5
984
  8
0
  0
BLOCK
  8
0
  2
INS-G6R1N
 70
     0
 10
0.0
 20
0.0
 30
0.0
  3
INS-G6R1N
  1

  0
POLYLINE
  5
990
  8
TFAS-0005
  6
CONTINUOUS
 62
     7
 66
     1
 10
0.0
 20
0.0
 30
0.0
  0
VERTEX
  5
991
  8
TFAS-0005
  6
CONTINUOUS
 62
     7
 10
115.5219999999372
 20
50.99099999992904
 30
0.0
  0
VERTEX
  5
992
  8
TFAS-0005
  6
CONTINUOUS
 62
     7
 10
50.28822530313664
 20
-50.99070245423991
 30
0.0
  0
VERTEX
  5
993
  8
TFAS-0005
  6
CONTINUOUS
 62
     7
 10
-115.5217746968638
 20
-50.99070245423991
 30
0.0
  0
SEQEND
  5
994
  8
TFAS-0005
  6
CONTINUOUS
 62
     7
  0
TEXT
  5
995
  8
TFAS-0005
  6
CONTINUOUS
 62
     7
 10
-114.0217747050037
 20
-43.28070243584629
 30
0.0
 40
20.79
  1
熱膨張性シート1
 41
0.786823293217155
  7
STYLE3
 11
-114.0217747050037
 21
-49.49070243584629
 31
0.0
 73
     1
  0
ENDBLK
  5
98E
  8
0
  0
BLOCK
  8
0
  2
INS-G3VZ0
 70
     0
 10
0.0
 20
0.0
 30
0.0
  3
INS-G3VZ0
  1

  0
POLYLINE
  5
99A
  8
TFAS-0005
  6
CONTINUOUS
 62
     7
 66
     1
 10
0.0
 20
0.0
 30
0.0
  0
VERTEX
  5
99B
  8
TFAS-0005
  6
CONTINUOUS
 62
     7
 10
94.44096353060013
 20
28.294633817869
 30
0.0
  0
VERTEX
  5
99C
  8
TFAS-0005
  6
CONTINUOUS
 62
     7
 10
71.36972530313687
 20
-28.2942157464413
 30
0.0
  0
VERTEX
  5
99D
  8
TFAS-0005
  6
CONTINUOUS
 62
     7
 10
-94.44027469686353
 20
-28.2942157464413
 30
0.0
  0
SEQEND
  5
99E
  8
TFAS-0005
  6
CONTINUOUS
 62
     7
  0
TEXT
  5
99F
  8
TFAS-0005
  6
CONTINUOUS
 62
     7
 10
-92.94027467212527
 20
-20.58421573599848
 30
0.0
 40
20.79
  1
熱膨張性シート2
 41
0.786823293217155
  7
STYLE3
 11
-92.94027467212527
 21
-26.79421573599848
 31
0.0
 73
     1
  0
ENDBLK
  5
998
  8
0
  0
BLOCK
  8
0
  2
INS-G3LN6
 70
     0
 10
0.0
 20
0.0
 30
0.0
  3
INS-G3LN6
  1

  0
POLYLINE
  5
9A4
  8
TFAS-0005
  6
CONTINUOUS
 62
     7
 66
     1
 10
0.0
 20
0.0
 30
0.0
  0
VERTEX
  5
9A5
  8
TFAS-0005
  6
CONTINUOUS
 62
     7
 10
-20.21476877538407
 20
25.60074374127362
 30
0.0
  0
VERTEX
  5
9A6
  8
TFAS-0005
  6
CONTINUOUS
 62
     7
 10
-6.004288774651286
 20
-25.59925625844699
 30
0.0
  0
VERTEX
  5
9A7
  8
TFAS-0005
  6
CONTINUOUS
 62
     7
 10
20.21571122534897
 20
-25.59925625844699
 30
0.0
  0
SEQEND
  5
9A8
  8
TFAS-0005
  6
CONTINUOUS
 62
     7
  0
TEXT
  5
9A9
  8
TFAS-0005
  6
CONTINUOUS
 62
     7
 10
-4.504288857611755
 20
-17.88925620825743
 30
0.0
 40
20.79
  1
床
 41
0.9379509379509379
  7
STYLE3
 11
-4.504288857611755
 21
-24.09925620825743
 31
0.0
 73
     1
  0
ENDBLK
  5
9A2
  8
0
  0
BLOCK
  8
0
  2
INS-GUTL4
 70
     0
 10
0.0
 20
0.0
 30
0.0
  3
INS-GUTL4
  1

  0
POLYLINE
  5
9AE
  8
TFAS-0005
  6
CONTINUOUS
 62
     7
 66
     1
 10
0.0
 20
0.0
 30
0.0
  0
VERTEX
  5
9AF
  8
TFAS-0005
  6
CONTINUOUS
 62
     7
 10
-20.21476877538407
 20
-34.33475625852225
 30
0.0
  0
VERTEX
  5
9B0
  8
TFAS-0005
  6
CONTINUOUS
 62
     7
 10
-6.004288774651286
 20
5.836243741101498
 30
0.0
  0
VERTEX
  5
9B1
  8
TFAS-0005
  6
CONTINUOUS
 62
     7
 10
20.21571122534897
 20
5.836243741101498
 30
0.0
  0
SEQEND
  5
9B2
  8
TFAS-0005
  6
CONTINUOUS
 62
     7
  0
TEXT
  5
9B3
  8
TFAS-0005
  6
CONTINUOUS
 62
     7
 10
-4.504288787700716
 20
13.54624376734406
 30
0.0
 40
20.79
  1
床
 41
0.9379509379509379
  7
STYLE3
 11
-4.504288787700716
 21
7.336243767344058
 31
0.0
 73
     1
  0
ENDBLK
  5
9AC
  8
0
  0
BLOCK
  8
0
  2
INS-GZ6T9
 70
     0
 10
0.0
 20
0.0
 30
0.0
  3
INS-GZ6T9
  1

  0
POLYLINE
  5
9C6
  8
TFAS-0005
  6
CONTINUOUS
 62
     7
 66
     1
 10
0.0
 20
0.0
 30
0.0
  0
VERTEX
  5
9C7
  8
TFAS-0005
  6
CONTINUOUS
 62
     7
 10
-27.76725132030424
 20
-30.3826245205646
 30
0.0
  0
VERTEX
  5
9C8
  8
TFAS-0005
  6
CONTINUOUS
 62
     7
 10
-36.32981339966045
 20
1.883813399988867
 30
0.0
  0
VERTEX
  5
9C9
  8
TFAS-0005
  6
CONTINUOUS
 62
     7
 10
36.3301866003394
 20
1.883813399988867
 30
0.0
  0
SEQEND
  5
9CA
  8
TFAS-0005
  6
CONTINUOUS
 62
     7
  0
TEXT
  5
9CB
  8
TFAS-0005
  6
CONTINUOUS
 62
     7
 10
-34.82981339980506
 20
9.59381341297554
 30
0.0
 40
20.79
  1
留付材
 41
0.8182125203401801
  7
STYLE3
 11
-34.82981339980506
 21
3.383813412975542
 31
0.0
 73
     1
  0
ENDBLK
  5
9C4
  8
0
  0
BLOCK
  8
0
  2
INS-G6BJR
 70
     0
 10
0.0
 20
0.0
 30
0.0
  3
INS-G6BJR
  1

  0
POLYLINE
  5
9D0
  8
TFAS-0005
  6
CONTINUOUS
 62
     7
 66
     1
 10
0.0
 20
0.0
 30
0.0
  0
VERTEX
  5
9D1
  8
TFAS-0005
  6
CONTINUOUS
 62
     7
 10
142.5732943749445
 20
-40.79754697531826
 30
0.0
  0
VERTEX
  5
9D2
  8
TFAS-0005
  6
CONTINUOUS
 62
     7
 10
98.83777386941074
 20
12.29946071576978
 30
0.0
  0
VERTEX
  5
9D3
  8
TFAS-0005
  6
CONTINUOUS
 62
     7
 10
-142.5722261305891
 20
12.29946071576978
 30
0.0
  0
SEQEND
  5
9D4
  8
TFAS-0005
  6
CONTINUOUS
 62
     7
  0
TEXT
  5
9D5
  8
TFAS-0005
  6
CONTINUOUS
 62
     7
 10
-141.0722261111452
 20
20.00946071217546
 30
0.0
 40
20.79
  1
配管(被覆材:10mm以下)
 41
0.7791372480229207
  7
STYLE3
 72
     2
 11
97.33777388885483
 21
13.79946071217546
 31
0.0
 73
     1
  0
ENDBLK
  5
9CE
  8
0
  0
BLOCK
  8
0
  2
INS-G4AZM
 70
     0
 10
0.0
 20
0.0
 30
0.0
  3
INS-G4AZM
  1

  0
POLYLINE
  5
9DA
  8
TFAS-0005
  6
CONTINUOUS
 62
     7
 66
     1
 10
0.0
 20
0.0
 30
0.0
  0
VERTEX
  5
9DB
  8
TFAS-0005
  6
CONTINUOUS
 62
     7
 10
142.5732943749445
 20
-40.79754697531826
 30
0.0
  0
VERTEX
  5
9DC
  8
TFAS-0005
  6
CONTINUOUS
 62
     7
 10
98.83777386941074
 20
12.29946071576978
 30
0.0
  0
VERTEX
  5
9DD
  8
TFAS-0005
  6
CONTINUOUS
 62
     7
 10
-142.5722261305891
 20
12.29946071576978
 30
0.0
  0
SEQEND
  5
9DE
  8
TFAS-0005
  6
CONTINUOUS
 62
     7
  0
TEXT
  5
9DF
  8
TFAS-0005
  6
CONTINUOUS
 62
     7
 10
-141.0722261194887
 20
20.00946070634742
 30
0.0
 40
20.79
  1
配管(被覆材:10mm以下)
 41
0.7791372480229207
  7
STYLE3
 11
-141.0722261194887
 21
13.79946070634742
 31
0.0
 73
     1
  0
ENDBLK
  5
9D8
  8
0
  0
ENDSEC
  0
SECTION
  2
ENTITIES
  0
POLYLINE
  5
111
  8
TFAS-0004
  6
CONTINUOUS
 62
     7
 66
     1
 10
0.0
 20
0.0
 30
0.0
 70
     1
  0
VERTEX
  5
112
  8
TFAS-0004
  6
CONTINUOUS
 62
     7
 10
5836.023000000045
 20
-5367.117999999784
 30
0.0
  0
VERTEX
  5
113
  8
TFAS-0004
  6
CONTINUOUS
 62
     7
 10
7171.023000000045
 20
-5367.117999999784
 30
0.0
  0
VERTEX
  5
114
  8
TFAS-0004
  6
CONTINUOUS
 62
     7
 10
7171.023000000045
 20
-4474.617999999784
 30
0.0
  0
VERTEX
  5
115
  8
TFAS-0004
  6
CONTINUOUS
 62
     7
 10
5836.023000000045
 20
-4474.617999999784
 30
0.0
  0
SEQEND
  5
116
  8
TFAS-0004
  6
CONTINUOUS
 62
     7
  0
LINE
  5
117
  8
TFAS-0004
  6
CONTINUOUS
 62
     7
 10
7171.023000000045
 20
-4549.617999999784
 30
0.0
 11
5836.023000000045
 21
-4549.617999999784
 31
0.0
  0
TEXT
  5
119
  8
TFAS-0004
  6
CONTINUOUS
 62
     7
 10
5853.332999999933
 20
-4537.434249999782
 30
0.0
 40
47.8125
  1
F49.
 41
0.7897914721444134
  7
STYLE1
 11
5853.332999999933
 21
-4513.527999999782
 31
0.0
 73
     2
  0
TEXT
  5
11B
  8
TFAS-0006
  6
CONTINUOUS
 62
     7
 10
5853.3330000004
 20
-5359.548000001038
 30
0.0
 40
22.95
  1
構造:中空床233.5mm以上
 41
0.6644363906700121
  7
STYLE2
 11
5853.3330000004
 21
-5363.598000001038
 31
0.0
 73
     1
  0
TEXT
  5
11C
  8
TFAS-0006
  6
CONTINUOUS
 62
     7
 10
5961.332999999989
 20
-4537.434249999636
 30
0.0
 40
47.8125
  1
PF管・ケーブル貫通（床・丸穴）
 41
0.638902557220607
  7
STYLE1
 11
5961.332999999989
 21
-4513.527999999636
 31
0.0
 73
     2
  0
TEXT
  5
11D
  8
TFAS-0006
  6
CONTINUOUS
 62
     7
 10
6723.333000000159
 20
-4537.434249999905
 30
0.0
 40
47.8125
  1
認定番号(PS060FL-0857)
 41
0.5890557797922319
  7
STYLE1
 11
6723.333000000159
 21
-4513.527999999905
 31
0.0
 73
     2
  0
INSERT
  5
121
  8
TFAS-0006
  2
INS-G6DVH
 10
5994.393
 20
-4581.244
 30
0.0
  0
LINE
  5
124
  8
TFAS-0007
  6
CONTINUOUS
 62
     7
 10
6130.773000000045
 20
-4866.117999999784
 30
0.0
 11
5999.773000000045
 21
-4866.117999999784
 31
0.0
  0
LINE
  5
125
  8
TFAS-0007
  6
CONTINUOUS
 62
     7
 10
6130.773000000045
 20
-4841.617999999784
 30
0.0
 11
5999.773000000045
 21
-4841.617999999784
 31
0.0
  0
LINE
  5
126
  8
TFAS-0007
  6
CONTINUOUS
 62
     7
 10
6130.773000000045
 20
-4854.117999999784
 30
0.0
 11
5999.773000000045
 21
-4854.117999999784
 31
0.0
  0
LINE
  5
127
  8
TFAS-0007
  6
CONTINUOUS
 62
     7
 10
6130.773000000045
 20
-4854.117999999784
 30
0.0
 11
6130.773000000045
 21
-4866.117999999784
 31
0.0
  0
LINE
  5
128
  8
TFAS-0007
  6
CONTINUOUS
 62
     7
 10
6208.773000000045
 20
-4866.117999999784
 30
0.0
 11
6208.773000000045
 21
-4854.117999999784
 31
0.0
  0
LINE
  5
129
  8
TFAS-0007
  6
CONTINUOUS
 62
     7
 10
6208.773000000045
 20
-4866.117999999784
 30
0.0
 11
6339.773000000045
 21
-4866.117999999784
 31
0.0
  0
LINE
  5
12A
  8
TFAS-0007
  6
CONTINUOUS
 62
     7
 10
6208.773000000045
 20
-4841.617999999784
 30
0.0
 11
6339.773000000045
 21
-4841.617999999784
 31
0.0
  0
LINE
  5
12B
  8
TFAS-0007
  6
CONTINUOUS
 62
     7
 10
6208.773000000045
 20
-4854.117999999784
 30
0.0
 11
6339.773000000045
 21
-4854.117999999784
 31
0.0
  0
LINE
  5
12C
  8
TFAS-0007
  6
CONTINUOUS
 62
     7
 10
6208.773000000045
 20
-4841.617999999784
 30
0.0
 11
6208.773000000045
 21
-4854.117999999784
 31
0.0
  0
LINE
  5
12D
  8
TFAS-0007
  6
CONTINUOUS
 62
     7
 10
6130.773000000045
 20
-4841.617999999784
 30
0.0
 11
6130.773000000045
 21
-4854.117999999784
 31
0.0
  0
LINE
  5
12E
  8
TFAS-0007
  6
CONTINUOUS
 62
     7
 10
6130.773000000045
 20
-5050.117999999784
 30
0.0
 11
5999.773000000045
 21
-5050.117999999784
 31
0.0
  0
LINE
  5
12F
  8
TFAS-0007
  6
CONTINUOUS
 62
     7
 10
6130.773000000045
 20
-5062.617999999784
 30
0.0
 11
5999.773000000045
 21
-5062.617999999784
 31
0.0
  0
LINE
  5
130
  8
TFAS-0007
  6
CONTINUOUS
 62
     7
 10
6130.773000000045
 20
-5050.117999999784
 30
0.0
 11
6130.773000000045
 21
-5075.117999999784
 31
0.0
  0
LINE
  5
131
  8
TFAS-0007
  6
CONTINUOUS
 62
     7
 10
6130.773000000045
 20
-5075.117999999784
 30
0.0
 11
5999.773000000045
 21
-5075.117999999784
 31
0.0
  0
LINE
  5
132
  8
TFAS-0007
  6
CONTINUOUS
 62
     7
 10
6208.773000000045
 20
-5062.617999999784
 30
0.0
 11
6339.773000000045
 21
-5062.617999999784
 31
0.0
  0
LINE
  5
133
  8
TFAS-0007
  6
CONTINUOUS
 62
     7
 10
6208.773000000045
 20
-5050.117999999784
 30
0.0
 11
6339.773000000045
 21
-5050.117999999784
 31
0.0
  0
LINE
  5
134
  8
TFAS-0007
  6
CONTINUOUS
 62
     7
 10
6208.773000000045
 20
-5050.117999999784
 30
0.0
 11
6208.773000000045
 21
-5075.117999999784
 31
0.0
  0
LINE
  5
135
  8
TFAS-0007
  6
CONTINUOUS
 62
     7
 10
6208.773000000045
 20
-5075.117999999784
 30
0.0
 11
6339.773000000045
 21
-5075.117999999784
 31
0.0
  0
CIRCLE
  5
136
  8
TFAS-0007
  6
CONTINUOUS
 62
     7
 10
6043.448055681568
 20
-4857.634769999784
 30
0.0
 40
1.499999999999999
  0
CIRCLE
  5
137
  8
TFAS-0007
  6
CONTINUOUS
 62
     7
 10
6038.448055681568
 20
-4862.634769999785
 30
0.0
 40
1.499999999999999
  0
CIRCLE
  5
138
  8
TFAS-0007
  6
CONTINUOUS
 62
     7
 10
6033.448045681568
 20
-4857.634769999784
 30
0.0
 40
1.499999999999999
  0
CIRCLE
  5
139
  8
TFAS-0007
  6
CONTINUOUS
 62
     7
 10
6048.448055681568
 20
-4862.634769999785
 30
0.0
 40
1.499999999999999
  0
CIRCLE
  5
13A
  8
TFAS-0007
  6
CONTINUOUS
 62
     7
 10
6058.448065681568
 20
-4862.634769999785
 30
0.0
 40
1.499999999999999
  0
CIRCLE
  5
13B
  8
TFAS-0007
  6
CONTINUOUS
 62
     7
 10
6053.448065681568
 20
-4857.634769999784
 30
0.0
 40
1.499999999999999
  0
CIRCLE
  5
13C
  8
TFAS-0007
  6
CONTINUOUS
 62
     7
 10
6068.448075681567
 20
-4862.634769999785
 30
0.0
 40
1.499999999999999
  0
CIRCLE
  5
13D
  8
TFAS-0007
  6
CONTINUOUS
 62
     7
 10
6063.448075681567
 20
-4857.634769999784
 30
0.0
 40
1.499999999999999
  0
CIRCLE
  5
13E
  8
TFAS-0007
  6
CONTINUOUS
 62
     7
 10
6078.448085681567
 20
-4862.634769999785
 30
0.0
 40
1.499999999999999
  0
CIRCLE
  5
13F
  8
TFAS-0007
  6
CONTINUOUS
 62
     7
 10
6073.448085681567
 20
-4857.634769999784
 30
0.0
 40
1.499999999999999
  0
CIRCLE
  5
140
  8
TFAS-0007
  6
CONTINUOUS
 62
     7
 10
6088.448095681567
 20
-4862.634769999785
 30
0.0
 40
1.499999999999999
  0
CIRCLE
  5
141
  8
TFAS-0007
  6
CONTINUOUS
 62
     7
 10
6083.448095681567
 20
-4857.634769999784
 30
0.0
 40
1.499999999999999
  0
CIRCLE
  5
142
  8
TFAS-0007
  6
CONTINUOUS
 62
     7
 10
6098.448105681567
 20
-4862.634769999785
 30
0.0
 40
1.499999999999999
  0
CIRCLE
  5
143
  8
TFAS-0007
  6
CONTINUOUS
 62
     7
 10
6093.448105681567
 20
-4857.634769999784
 30
0.0
 40
1.499999999999999
  0
CIRCLE
  5
144
  8
TFAS-0007
  6
CONTINUOUS
 62
     7
 10
6108.448115681566
 20
-4862.634769999785
 30
0.0
 40
1.499999999999999
  0
CIRCLE
  5
145
  8
TFAS-0007
  6
CONTINUOUS
 62
     7
 10
6103.448115681566
 20
-4857.634769999784
 30
0.0
 40
1.499999999999999
  0
CIRCLE
  5
146
  8
TFAS-0007
  6
CONTINUOUS
 62
     7
 10
6118.448125681566
 20
-4862.634769999785
 30
0.0
 40
1.499999999999999
  0
CIRCLE
  5
147
  8
TFAS-0007
  6
CONTINUOUS
 62
     7
 10
6113.448125681566
 20
-4857.634769999784
 30
0.0
 40
1.499999999999999
  0
CIRCLE
  5
148
  8
TFAS-0007
  6
CONTINUOUS
 62
     7
 10
6013.448035681568
 20
-4857.634769999784
 30
0.0
 40
1.499999999999999
  0
CIRCLE
  5
149
  8
TFAS-0007
  6
CONTINUOUS
 62
     7
 10
6008.448035681568
 20
-4862.634769999785
 30
0.0
 40
1.499999999999999
  0
CIRCLE
  5
14A
  8
TFAS-0007
  6
CONTINUOUS
 62
     7
 10
6003.448025681569
 20
-4857.634769999784
 30
0.0
 40
1.499999999999999
  0
CIRCLE
  5
14B
  8
TFAS-0007
  6
CONTINUOUS
 62
     7
 10
6018.448035681568
 20
-4862.634769999785
 30
0.0
 40
1.499999999999999
  0
CIRCLE
  5
14C
  8
TFAS-0007
  6
CONTINUOUS
 62
     7
 10
6028.448045681568
 20
-4862.634769999785
 30
0.0
 40
1.499999999999999
  0
CIRCLE
  5
14D
  8
TFAS-0007
  6
CONTINUOUS
 62
     7
 10
6023.448045681568
 20
-4857.634769999784
 30
0.0
 40
1.499999999999999
  0
CIRCLE
  5
14E
  8
TFAS-0007
  6
CONTINUOUS
 62
     7
 10
6043.448055681568
 20
-4845.634769999784
 30
0.0
 40
1.499999999999999
  0
CIRCLE
  5
14F
  8
TFAS-0007
  6
CONTINUOUS
 62
     7
 10
6038.448055681568
 20
-4850.634769999785
 30
0.0
 40
1.499999999999999
  0
CIRCLE
  5
150
  8
TFAS-0007
  6
CONTINUOUS
 62
     7
 10
6033.448045681568
 20
-4845.634769999784
 30
0.0
 40
1.499999999999999
  0
CIRCLE
  5
151
  8
TFAS-0007
  6
CONTINUOUS
 62
     7
 10
6048.448055681568
 20
-4850.634769999785
 30
0.0
 40
1.499999999999999
  0
CIRCLE
  5
152
  8
TFAS-0007
  6
CONTINUOUS
 62
     7
 10
6058.448065681568
 20
-4850.634769999785
 30
0.0
 40
1.499999999999999
  0
CIRCLE
  5
153
  8
TFAS-0007
  6
CONTINUOUS
 62
     7
 10
6053.448065681568
 20
-4845.634769999784
 30
0.0
 40
1.499999999999999
  0
CIRCLE
  5
154
  8
TFAS-0007
  6
CONTINUOUS
 62
     7
 10
6068.448075681567
 20
-4850.634769999785
 30
0.0
 40
1.499999999999999
  0
CIRCLE
  5
155
  8
TFAS-0007
  6
CONTINUOUS
 62
     7
 10
6063.448075681567
 20
-4845.634769999784
 30
0.0
 40
1.499999999999999
  0
CIRCLE
  5
156
  8
TFAS-0007
  6
CONTINUOUS
 62
     7
 10
6078.448085681567
 20
-4850.634769999785
 30
0.0
 40
1.499999999999999
  0
CIRCLE
  5
157
  8
TFAS-0007
  6
CONTINUOUS
 62
     7
 10
6073.448085681567
 20
-4845.634769999784
 30
0.0
 40
1.499999999999999
  0
CIRCLE
  5
158
  8
TFAS-0007
  6
CONTINUOUS
 62
     7
 10
6088.448095681567
 20
-4850.634769999785
 30
0.0
 40
1.499999999999999
  0
CIRCLE
  5
159
  8
TFAS-0007
  6
CONTINUOUS
 62
     7
 10
6083.448095681567
 20
-4845.634769999784
 30
0.0
 40
1.499999999999999
  0
CIRCLE
  5
15A
  8
TFAS-0007
  6
CONTINUOUS
 62
     7
 10
6098.448105681567
 20
-4850.634769999785
 30
0.0
 40
1.499999999999999
  0
CIRCLE
  5
15B
  8
TFAS-0007
  6
CONTINUOUS
 62
     7
 10
6093.448105681567
 20
-4845.634769999784
 30
0.0
 40
1.499999999999999
  0
CIRCLE
  5
15C
  8
TFAS-0007
  6
CONTINUOUS
 62
     7
 10
6108.448115681566
 20
-4850.634769999785
 30
0.0
 40
1.499999999999999
  0
CIRCLE
  5
15D
  8
TFAS-0007
  6
CONTINUOUS
 62
     7
 10
6103.448115681566
 20
-4845.634769999784
 30
0.0
 40
1.499999999999999
  0
CIRCLE
  5
15E
  8
TFAS-0007
  6
CONTINUOUS
 62
     7
 10
6118.448125681566
 20
-4850.634769999785
 30
0.0
 40
1.499999999999999
  0
CIRCLE
  5
15F
  8
TFAS-0007
  6
CONTINUOUS
 62
     7
 10
6113.448125681566
 20
-4845.634769999784
 30
0.0
 40
1.499999999999999
  0
CIRCLE
  5
160
  8
TFAS-0007
  6
CONTINUOUS
 62
     7
 10
6013.448035681568
 20
-4845.634769999784
 30
0.0
 40
1.499999999999999
  0
CIRCLE
  5
161
  8
TFAS-0007
  6
CONTINUOUS
 62
     7
 10
6008.448035681568
 20
-4850.634769999785
 30
0.0
 40
1.499999999999999
  0
CIRCLE
  5
162
  8
TFAS-0007
  6
CONTINUOUS
 62
     7
 10
6003.448025681569
 20
-4845.634769999784
 30
0.0
 40
1.499999999999999
  0
CIRCLE
  5
163
  8
TFAS-0007
  6
CONTINUOUS
 62
     7
 10
6018.448035681568
 20
-4850.634769999785
 30
0.0
 40
1.499999999999999
  0
CIRCLE
  5
164
  8
TFAS-0007
  6
CONTINUOUS
 62
     7
 10
6028.448045681568
 20
-4850.634769999785
 30
0.0
 40
1.499999999999999
  0
CIRCLE
  5
165
  8
TFAS-0007
  6
CONTINUOUS
 62
     7
 10
6023.448045681568
 20
-4845.634769999784
 30
0.0
 40
1.499999999999999
  0
CIRCLE
  5
166
  8
TFAS-0007
  6
CONTINUOUS
 62
     7
 10
6260.698055681568
 20
-4845.634769999784
 30
0.0
 40
1.499999999999999
  0
CIRCLE
  5
167
  8
TFAS-0007
  6
CONTINUOUS
 62
     7
 10
6255.698055681568
 20
-4850.634769999785
 30
0.0
 40
1.499999999999999
  0
CIRCLE
  5
168
  8
TFAS-0007
  6
CONTINUOUS
 62
     7
 10
6250.698045681568
 20
-4845.634769999784
 30
0.0
 40
1.499999999999999
  0
CIRCLE
  5
169
  8
TFAS-0007
  6
CONTINUOUS
 62
     7
 10
6265.698055681568
 20
-4850.634769999785
 30
0.0
 40
1.499999999999999
  0
CIRCLE
  5
16A
  8
TFAS-0007
  6
CONTINUOUS
 62
     7
 10
6275.698065681568
 20
-4850.634769999785
 30
0.0
 40
1.499999999999999
  0
CIRCLE
  5
16B
  8
TFAS-0007
  6
CONTINUOUS
 62
     7
 10
6270.698065681568
 20
-4845.634769999784
 30
0.0
 40
1.499999999999999
  0
CIRCLE
  5
16C
  8
TFAS-0007
  6
CONTINUOUS
 62
     7
 10
6285.698075681567
 20
-4850.634769999785
 30
0.0
 40
1.499999999999999
  0
CIRCLE
  5
16D
  8
TFAS-0007
  6
CONTINUOUS
 62
     7
 10
6280.698075681567
 20
-4845.634769999784
 30
0.0
 40
1.499999999999999
  0
CIRCLE
  5
16E
  8
TFAS-0007
  6
CONTINUOUS
 62
     7
 10
6295.698085681567
 20
-4850.634769999785
 30
0.0
 40
1.499999999999999
  0
CIRCLE
  5
16F
  8
TFAS-0007
  6
CONTINUOUS
 62
     7
 10
6290.698085681567
 20
-4845.634769999784
 30
0.0
 40
1.499999999999999
  0
CIRCLE
  5
170
  8
TFAS-0007
  6
CONTINUOUS
 62
     7
 10
6305.698095681567
 20
-4850.634769999785
 30
0.0
 40
1.499999999999999
  0
CIRCLE
  5
171
  8
TFAS-0007
  6
CONTINUOUS
 62
     7
 10
6300.698095681567
 20
-4845.634769999784
 30
0.0
 40
1.499999999999999
  0
CIRCLE
  5
172
  8
TFAS-0007
  6
CONTINUOUS
 62
     7
 10
6315.698105681567
 20
-4850.634769999785
 30
0.0
 40
1.499999999999999
  0
CIRCLE
  5
173
  8
TFAS-0007
  6
CONTINUOUS
 62
     7
 10
6310.698105681567
 20
-4845.634769999784
 30
0.0
 40
1.499999999999999
  0
CIRCLE
  5
174
  8
TFAS-0007
  6
CONTINUOUS
 62
     7
 10
6325.698115681566
 20
-4850.634769999785
 30
0.0
 40
1.499999999999999
  0
CIRCLE
  5
175
  8
TFAS-0007
  6
CONTINUOUS
 62
     7
 10
6320.698115681566
 20
-4845.634769999784
 30
0.0
 40
1.499999999999999
  0
CIRCLE
  5
176
  8
TFAS-0007
  6
CONTINUOUS
 62
     7
 10
6335.698125681566
 20
-4850.634769999785
 30
0.0
 40
1.499999999999999
  0
CIRCLE
  5
177
  8
TFAS-0007
  6
CONTINUOUS
 62
     7
 10
6330.698125681566
 20
-4845.634769999784
 30
0.0
 40
1.499999999999999
  0
CIRCLE
  5
178
  8
TFAS-0007
  6
CONTINUOUS
 62
     7
 10
6230.698035681568
 20
-4845.634769999784
 30
0.0
 40
1.499999999999999
  0
CIRCLE
  5
179
  8
TFAS-0007
  6
CONTINUOUS
 62
     7
 10
6225.698035681568
 20
-4850.634769999785
 30
0.0
 40
1.499999999999999
  0
CIRCLE
  5
17A
  8
TFAS-0007
  6
CONTINUOUS
 62
     7
 10
6220.698025681569
 20
-4845.634769999784
 30
0.0
 40
1.499999999999999
  0
CIRCLE
  5
17B
  8
TFAS-0007
  6
CONTINUOUS
 62
     7
 10
6235.698035681568
 20
-4850.634769999785
 30
0.0
 40
1.499999999999999
  0
CIRCLE
  5
17C
  8
TFAS-0007
  6
CONTINUOUS
 62
     7
 10
6245.698045681568
 20
-4850.634769999785
 30
0.0
 40
1.499999999999999
  0
CIRCLE
  5
17D
  8
TFAS-0007
  6
CONTINUOUS
 62
     7
 10
6240.698045681568
 20
-4845.634769999784
 30
0.0
 40
1.499999999999999
  0
CIRCLE
  5
17E
  8
TFAS-0007
  6
CONTINUOUS
 62
     7
 10
6260.698055681568
 20
-4857.634769999784
 30
0.0
 40
1.499999999999999
  0
CIRCLE
  5
17F
  8
TFAS-0007
  6
CONTINUOUS
 62
     7
 10
6255.698055681568
 20
-4862.634769999785
 30
0.0
 40
1.499999999999999
  0
CIRCLE
  5
180
  8
TFAS-0007
  6
CONTINUOUS
 62
     7
 10
6250.698045681568
 20
-4857.634769999784
 30
0.0
 40
1.499999999999999
  0
CIRCLE
  5
181
  8
TFAS-0007
  6
CONTINUOUS
 62
     7
 10
6265.698055681568
 20
-4862.634769999785
 30
0.0
 40
1.499999999999999
  0
CIRCLE
  5
182
  8
TFAS-0007
  6
CONTINUOUS
 62
     7
 10
6275.698065681568
 20
-4862.634769999785
 30
0.0
 40
1.499999999999999
  0
CIRCLE
  5
183
  8
TFAS-0007
  6
CONTINUOUS
 62
     7
 10
6270.698065681568
 20
-4857.634769999784
 30
0.0
 40
1.499999999999999
  0
CIRCLE
  5
184
  8
TFAS-0007
  6
CONTINUOUS
 62
     7
 10
6285.698075681567
 20
-4862.634769999785
 30
0.0
 40
1.499999999999999
  0
CIRCLE
  5
185
  8
TFAS-0007
  6
CONTINUOUS
 62
     7
 10
6280.698075681567
 20
-4857.634769999784
 30
0.0
 40
1.499999999999999
  0
CIRCLE
  5
186
  8
TFAS-0007
  6
CONTINUOUS
 62
     7
 10
6295.698085681567
 20
-4862.634769999785
 30
0.0
 40
1.499999999999999
  0
CIRCLE
  5
187
  8
TFAS-0007
  6
CONTINUOUS
 62
     7
 10
6290.698085681567
 20
-4857.634769999784
 30
0.0
 40
1.499999999999999
  0
CIRCLE
  5
188
  8
TFAS-0007
  6
CONTINUOUS
 62
     7
 10
6305.698095681567
 20
-4862.634769999785
 30
0.0
 40
1.499999999999999
  0
CIRCLE
  5
189
  8
TFAS-0007
  6
CONTINUOUS
 62
     7
 10
6300.698095681567
 20
-4857.634769999784
 30
0.0
 40
1.499999999999999
  0
CIRCLE
  5
18A
  8
TFAS-0007
  6
CONTINUOUS
 62
     7
 10
6315.698105681567
 20
-4862.634769999785
 30
0.0
 40
1.499999999999999
  0
CIRCLE
  5
18B
  8
TFAS-0007
  6
CONTINUOUS
 62
     7
 10
6310.698105681567
 20
-4857.634769999784
 30
0.0
 40
1.499999999999999
  0
CIRCLE
  5
18C
  8
TFAS-0007
  6
CONTINUOUS
 62
     7
 10
6325.698115681566
 20
-4862.634769999785
 30
0.0
 40
1.499999999999999
  0
CIRCLE
  5
18D
  8
TFAS-0007
  6
CONTINUOUS
 62
     7
 10
6320.698115681566
 20
-4857.634769999784
 30
0.0
 40
1.499999999999999
  0
CIRCLE
  5
18E
  8
TFAS-0007
  6
CONTINUOUS
 62
     7
 10
6335.698125681566
 20
-4862.634769999785
 30
0.0
 40
1.499999999999999
  0
CIRCLE
  5
18F
  8
TFAS-0007
  6
CONTINUOUS
 62
     7
 10
6330.698125681566
 20
-4857.634769999784
 30
0.0
 40
1.499999999999999
  0
CIRCLE
  5
190
  8
TFAS-0007
  6
CONTINUOUS
 62
     7
 10
6230.698035681568
 20
-4857.634769999784
 30
0.0
 40
1.499999999999999
  0
CIRCLE
  5
191
  8
TFAS-0007
  6
CONTINUOUS
 62
     7
 10
6225.698035681568
 20
-4862.634769999785
 30
0.0
 40
1.499999999999999
  0
CIRCLE
  5
192
  8
TFAS-0007
  6
CONTINUOUS
 62
     7
 10
6220.698025681569
 20
-4857.634769999784
 30
0.0
 40
1.499999999999999
  0
CIRCLE
  5
193
  8
TFAS-0007
  6
CONTINUOUS
 62
     7
 10
6235.698035681568
 20
-4862.634769999785
 30
0.0
 40
1.499999999999999
  0
CIRCLE
  5
194
  8
TFAS-0007
  6
CONTINUOUS
 62
     7
 10
6245.698045681568
 20
-4862.634769999785
 30
0.0
 40
1.499999999999999
  0
CIRCLE
  5
195
  8
TFAS-0007
  6
CONTINUOUS
 62
     7
 10
6240.698045681568
 20
-4857.634769999784
 30
0.0
 40
1.499999999999999
  0
CIRCLE
  5
196
  8
TFAS-0007
  6
CONTINUOUS
 62
     7
 10
6043.448055681568
 20
-5066.134769999784
 30
0.0
 40
1.499999999999999
  0
CIRCLE
  5
197
  8
TFAS-0007
  6
CONTINUOUS
 62
     7
 10
6038.448055681568
 20
-5071.134769999785
 30
0.0
 40
1.499999999999999
  0
CIRCLE
  5
198
  8
TFAS-0007
  6
CONTINUOUS
 62
     7
 10
6033.448045681568
 20
-5066.134769999784
 30
0.0
 40
1.499999999999999
  0
CIRCLE
  5
199
  8
TFAS-0007
  6
CONTINUOUS
 62
     7
 10
6048.448055681568
 20
-5071.134769999785
 30
0.0
 40
1.499999999999999
  0
CIRCLE
  5
19A
  8
TFAS-0007
  6
CONTINUOUS
 62
     7
 10
6058.448065681568
 20
-5071.134769999785
 30
0.0
 40
1.499999999999999
  0
CIRCLE
  5
19B
  8
TFAS-0007
  6
CONTINUOUS
 62
     7
 10
6053.448065681568
 20
-5066.134769999784
 30
0.0
 40
1.499999999999999
  0
CIRCLE
  5
19C
  8
TFAS-0007
  6
CONTINUOUS
 62
     7
 10
6068.448075681567
 20
-5071.134769999785
 30
0.0
 40
1.499999999999999
  0
CIRCLE
  5
19D
  8
TFAS-0007
  6
CONTINUOUS
 62
     7
 10
6063.448075681567
 20
-5066.134769999784
 30
0.0
 40
1.499999999999999
  0
CIRCLE
  5
19E
  8
TFAS-0007
  6
CONTINUOUS
 62
     7
 10
6078.448085681567
 20
-5071.134769999785
 30
0.0
 40
1.499999999999999
  0
CIRCLE
  5
19F
  8
TFAS-0007
  6
CONTINUOUS
 62
     7
 10
6073.448085681567
 20
-5066.134769999784
 30
0.0
 40
1.499999999999999
  0
CIRCLE
  5
1A0
  8
TFAS-0007
  6
CONTINUOUS
 62
     7
 10
6088.448095681567
 20
-5071.134769999785
 30
0.0
 40
1.499999999999999
  0
CIRCLE
  5
1A1
  8
TFAS-0007
  6
CONTINUOUS
 62
     7
 10
6083.448095681567
 20
-5066.134769999784
 30
0.0
 40
1.499999999999999
  0
CIRCLE
  5
1A2
  8
TFAS-0007
  6
CONTINUOUS
 62
     7
 10
6098.448105681567
 20
-5071.134769999785
 30
0.0
 40
1.499999999999999
  0
CIRCLE
  5
1A3
  8
TFAS-0007
  6
CONTINUOUS
 62
     7
 10
6093.448105681567
 20
-5066.134769999784
 30
0.0
 40
1.499999999999999
  0
CIRCLE
  5
1A4
  8
TFAS-0007
  6
CONTINUOUS
 62
     7
 10
6013.448035681568
 20
-5066.134769999784
 30
0.0
 40
1.499999999999999
  0
CIRCLE
  5
1A5
  8
TFAS-0007
  6
CONTINUOUS
 62
     7
 10
6008.448035681568
 20
-5071.134769999785
 30
0.0
 40
1.499999999999999
  0
CIRCLE
  5
1A6
  8
TFAS-0007
  6
CONTINUOUS
 62
     7
 10
6003.448025681569
 20
-5066.134769999784
 30
0.0
 40
1.499999999999999
  0
CIRCLE
  5
1A7
  8
TFAS-0007
  6
CONTINUOUS
 62
     7
 10
6018.448035681568
 20
-5071.134769999785
 30
0.0
 40
1.499999999999999
  0
CIRCLE
  5
1A8
  8
TFAS-0007
  6
CONTINUOUS
 62
     7
 10
6028.448045681568
 20
-5071.134769999785
 30
0.0
 40
1.499999999999999
  0
CIRCLE
  5
1A9
  8
TFAS-0007
  6
CONTINUOUS
 62
     7
 10
6023.448045681568
 20
-5066.134769999784
 30
0.0
 40
1.499999999999999
  0
CIRCLE
  5
1AA
  8
TFAS-0007
  6
CONTINUOUS
 62
     7
 10
6043.448055681568
 20
-5054.134769999784
 30
0.0
 40
1.499999999999999
  0
CIRCLE
  5
1AB
  8
TFAS-0007
  6
CONTINUOUS
 62
     7
 10
6038.448055681568
 20
-5059.134769999785
 30
0.0
 40
1.499999999999999
  0
CIRCLE
  5
1AC
  8
TFAS-0007
  6
CONTINUOUS
 62
     7
 10
6033.448045681568
 20
-5054.134769999784
 30
0.0
 40
1.499999999999999
  0
CIRCLE
  5
1AD
  8
TFAS-0007
  6
CONTINUOUS
 62
     7
 10
6048.448055681568
 20
-5059.134769999785
 30
0.0
 40
1.499999999999999
  0
CIRCLE
  5
1AE
  8
TFAS-0007
  6
CONTINUOUS
 62
     7
 10
6058.448065681568
 20
-5059.134769999785
 30
0.0
 40
1.499999999999999
  0
CIRCLE
  5
1AF
  8
TFAS-0007
  6
CONTINUOUS
 62
     7
 10
6053.448065681568
 20
-5054.134769999784
 30
0.0
 40
1.499999999999999
  0
CIRCLE
  5
1B0
  8
TFAS-0007
  6
CONTINUOUS
 62
     7
 10
6068.448075681567
 20
-5059.134769999785
 30
0.0
 40
1.499999999999999
  0
CIRCLE
  5
1B1
  8
TFAS-0007
  6
CONTINUOUS
 62
     7
 10
6063.448075681567
 20
-5054.134769999784
 30
0.0
 40
1.499999999999999
  0
CIRCLE
  5
1B2
  8
TFAS-0007
  6
CONTINUOUS
 62
     7
 10
6078.448085681567
 20
-5059.134769999785
 30
0.0
 40
1.499999999999999
  0
CIRCLE
  5
1B3
  8
TFAS-0007
  6
CONTINUOUS
 62
     7
 10
6073.448085681567
 20
-5054.134769999784
 30
0.0
 40
1.499999999999999
  0
CIRCLE
  5
1B4
  8
TFAS-0007
  6
CONTINUOUS
 62
     7
 10
6088.448095681567
 20
-5059.134769999785
 30
0.0
 40
1.499999999999999
  0
CIRCLE
  5
1B5
  8
TFAS-0007
  6
CONTINUOUS
 62
     7
 10
6083.448095681567
 20
-5054.134769999784
 30
0.0
 40
1.499999999999999
  0
CIRCLE
  5
1B6
  8
TFAS-0007
  6
CONTINUOUS
 62
     7
 10
6098.448105681567
 20
-5059.134769999785
 30
0.0
 40
1.499999999999999
  0
CIRCLE
  5
1B7
  8
TFAS-0007
  6
CONTINUOUS
 62
     7
 10
6093.448105681567
 20
-5054.134769999784
 30
0.0
 40
1.499999999999999
  0
CIRCLE
  5
1B8
  8
TFAS-0007
  6
CONTINUOUS
 62
     7
 10
6013.448035681568
 20
-5054.134769999784
 30
0.0
 40
1.499999999999999
  0
CIRCLE
  5
1B9
  8
TFAS-0007
  6
CONTINUOUS
 62
     7
 10
6008.448035681568
 20
-5059.134769999785
 30
0.0
 40
1.499999999999999
  0
CIRCLE
  5
1BA
  8
TFAS-0007
  6
CONTINUOUS
 62
     7
 10
6003.448025681569
 20
-5054.134769999784
 30
0.0
 40
1.499999999999999
  0
CIRCLE
  5
1BB
  8
TFAS-0007
  6
CONTINUOUS
 62
     7
 10
6018.448035681568
 20
-5059.134769999785
 30
0.0
 40
1.499999999999999
  0
CIRCLE
  5
1BC
  8
TFAS-0007
  6
CONTINUOUS
 62
     7
 10
6028.448045681568
 20
-5059.134769999785
 30
0.0
 40
1.499999999999999
  0
CIRCLE
  5
1BD
  8
TFAS-0007
  6
CONTINUOUS
 62
     7
 10
6023.448045681568
 20
-5054.134769999784
 30
0.0
 40
1.499999999999999
  0
CIRCLE
  5
1BE
  8
TFAS-0007
  6
CONTINUOUS
 62
     7
 10
6108.448115681566
 20
-5071.134769999785
 30
0.0
 40
1.499999999999999
  0
CIRCLE
  5
1BF
  8
TFAS-0007
  6
CONTINUOUS
 62
     7
 10
6103.448115681566
 20
-5066.134769999784
 30
0.0
 40
1.499999999999999
  0
CIRCLE
  5
1C0
  8
TFAS-0007
  6
CONTINUOUS
 62
     7
 10
6118.448125681566
 20
-5071.134769999785
 30
0.0
 40
1.499999999999999
  0
CIRCLE
  5
1C1
  8
TFAS-0007
  6
CONTINUOUS
 62
     7
 10
6113.448125681566
 20
-5066.134769999784
 30
0.0
 40
1.499999999999999
  0
CIRCLE
  5
1C2
  8
TFAS-0007
  6
CONTINUOUS
 62
     7
 10
6108.448115681566
 20
-5059.134769999785
 30
0.0
 40
1.499999999999999
  0
CIRCLE
  5
1C3
  8
TFAS-0007
  6
CONTINUOUS
 62
     7
 10
6103.448115681566
 20
-5054.134769999784
 30
0.0
 40
1.499999999999999
  0
CIRCLE
  5
1C4
  8
TFAS-0007
  6
CONTINUOUS
 62
     7
 10
6118.448125681566
 20
-5059.134769999785
 30
0.0
 40
1.499999999999999
  0
CIRCLE
  5
1C5
  8
TFAS-0007
  6
CONTINUOUS
 62
     7
 10
6113.448125681566
 20
-5054.134769999784
 30
0.0
 40
1.499999999999999
  0
CIRCLE
  5
1C6
  8
TFAS-0007
  6
CONTINUOUS
 62
     7
 10
6260.698055681568
 20
-5054.134769999784
 30
0.0
 40
1.499999999999999
  0
CIRCLE
  5
1C7
  8
TFAS-0007
  6
CONTINUOUS
 62
     7
 10
6255.698055681568
 20
-5059.134769999785
 30
0.0
 40
1.499999999999999
  0
CIRCLE
  5
1C8
  8
TFAS-0007
  6
CONTINUOUS
 62
     7
 10
6250.698045681568
 20
-5054.134769999784
 30
0.0
 40
1.499999999999999
  0
CIRCLE
  5
1C9
  8
TFAS-0007
  6
CONTINUOUS
 62
     7
 10
6265.698055681568
 20
-5059.134769999785
 30
0.0
 40
1.499999999999999
  0
CIRCLE
  5
1CA
  8
TFAS-0007
  6
CONTINUOUS
 62
     7
 10
6275.698065681568
 20
-5059.134769999785
 30
0.0
 40
1.499999999999999
  0
CIRCLE
  5
1CB
  8
TFAS-0007
  6
CONTINUOUS
 62
     7
 10
6270.698065681568
 20
-5054.134769999784
 30
0.0
 40
1.499999999999999
  0
CIRCLE
  5
1CC
  8
TFAS-0007
  6
CONTINUOUS
 62
     7
 10
6285.698075681567
 20
-5059.134769999785
 30
0.0
 40
1.499999999999999
  0
CIRCLE
  5
1CD
  8
TFAS-0007
  6
CONTINUOUS
 62
     7
 10
6280.698075681567
 20
-5054.134769999784
 30
0.0
 40
1.499999999999999
  0
CIRCLE
  5
1CE
  8
TFAS-0007
  6
CONTINUOUS
 62
     7
 10
6295.698085681567
 20
-5059.134769999785
 30
0.0
 40
1.499999999999999
  0
CIRCLE
  5
1CF
  8
TFAS-0007
  6
CONTINUOUS
 62
     7
 10
6290.698085681567
 20
-5054.134769999784
 30
0.0
 40
1.499999999999999
  0
CIRCLE
  5
1D0
  8
TFAS-0007
  6
CONTINUOUS
 62
     7
 10
6305.698095681567
 20
-5059.134769999785
 30
0.0
 40
1.499999999999999
  0
CIRCLE
  5
1D1
  8
TFAS-0007
  6
CONTINUOUS
 62
     7
 10
6300.698095681567
 20
-5054.134769999784
 30
0.0
 40
1.499999999999999
  0
CIRCLE
  5
1D2
  8
TFAS-0007
  6
CONTINUOUS
 62
     7
 10
6315.698105681567
 20
-5059.134769999785
 30
0.0
 40
1.499999999999999
  0
CIRCLE
  5
1D3
  8
TFAS-0007
  6
CONTINUOUS
 62
     7
 10
6310.698105681567
 20
-5054.134769999784
 30
0.0
 40
1.499999999999999
  0
CIRCLE
  5
1D4
  8
TFAS-0007
  6
CONTINUOUS
 62
     7
 10
6325.698115681566
 20
-5059.134769999785
 30
0.0
 40
1.499999999999999
  0
CIRCLE
  5
1D5
  8
TFAS-0007
  6
CONTINUOUS
 62
     7
 10
6320.698115681566
 20
-5054.134769999784
 30
0.0
 40
1.499999999999999
  0
CIRCLE
  5
1D6
  8
TFAS-0007
  6
CONTINUOUS
 62
     7
 10
6335.698125681566
 20
-5059.134769999785
 30
0.0
 40
1.499999999999999
  0
CIRCLE
  5
1D7
  8
TFAS-0007
  6
CONTINUOUS
 62
     7
 10
6330.698125681566
 20
-5054.134769999784
 30
0.0
 40
1.499999999999999
  0
CIRCLE
  5
1D8
  8
TFAS-0007
  6
CONTINUOUS
 62
     7
 10
6230.698035681568
 20
-5054.134769999784
 30
0.0
 40
1.499999999999999
  0
CIRCLE
  5
1D9
  8
TFAS-0007
  6
CONTINUOUS
 62
     7
 10
6225.698035681568
 20
-5059.134769999785
 30
0.0
 40
1.499999999999999
  0
CIRCLE
  5
1DA
  8
TFAS-0007
  6
CONTINUOUS
 62
     7
 10
6220.698025681569
 20
-5054.134769999784
 30
0.0
 40
1.499999999999999
  0
CIRCLE
  5
1DB
  8
TFAS-0007
  6
CONTINUOUS
 62
     7
 10
6235.698035681568
 20
-5059.134769999785
 30
0.0
 40
1.499999999999999
  0
CIRCLE
  5
1DC
  8
TFAS-0007
  6
CONTINUOUS
 62
     7
 10
6245.698045681568
 20
-5059.134769999785
 30
0.0
 40
1.499999999999999
  0
CIRCLE
  5
1DD
  8
TFAS-0007
  6
CONTINUOUS
 62
     7
 10
6240.698045681568
 20
-5054.134769999784
 30
0.0
 40
1.499999999999999
  0
CIRCLE
  5
1DE
  8
TFAS-0007
  6
CONTINUOUS
 62
     7
 10
6260.698055681568
 20
-5066.134769999784
 30
0.0
 40
1.499999999999999
  0
CIRCLE
  5
1DF
  8
TFAS-0007
  6
CONTINUOUS
 62
     7
 10
6255.698055681568
 20
-5071.134769999785
 30
0.0
 40
1.499999999999999
  0
CIRCLE
  5
1E0
  8
TFAS-0007
  6
CONTINUOUS
 62
     7
 10
6250.698045681568
 20
-5066.134769999784
 30
0.0
 40
1.499999999999999
  0
CIRCLE
  5
1E1
  8
TFAS-0007
  6
CONTINUOUS
 62
     7
 10
6265.698055681568
 20
-5071.134769999785
 30
0.0
 40
1.499999999999999
  0
CIRCLE
  5
1E2
  8
TFAS-0007
  6
CONTINUOUS
 62
     7
 10
6275.698065681568
 20
-5071.134769999785
 30
0.0
 40
1.499999999999999
  0
CIRCLE
  5
1E3
  8
TFAS-0007
  6
CONTINUOUS
 62
     7
 10
6270.698065681568
 20
-5066.134769999784
 30
0.0
 40
1.499999999999999
  0
CIRCLE
  5
1E4
  8
TFAS-0007
  6
CONTINUOUS
 62
     7
 10
6285.698075681567
 20
-5071.134769999785
 30
0.0
 40
1.499999999999999
  0
CIRCLE
  5
1E5
  8
TFAS-0007
  6
CONTINUOUS
 62
     7
 10
6280.698075681567
 20
-5066.134769999784
 30
0.0
 40
1.499999999999999
  0
CIRCLE
  5
1E6
  8
TFAS-0007
  6
CONTINUOUS
 62
     7
 10
6295.698085681567
 20
-5071.134769999785
 30
0.0
 40
1.499999999999999
  0
CIRCLE
  5
1E7
  8
TFAS-0007
  6
CONTINUOUS
 62
     7
 10
6290.698085681567
 20
-5066.134769999784
 30
0.0
 40
1.499999999999999
  0
CIRCLE
  5
1E8
  8
TFAS-0007
  6
CONTINUOUS
 62
     7
 10
6305.698095681567
 20
-5071.134769999785
 30
0.0
 40
1.499999999999999
  0
CIRCLE
  5
1E9
  8
TFAS-0007
  6
CONTINUOUS
 62
     7
 10
6300.698095681567
 20
-5066.134769999784
 30
0.0
 40
1.499999999999999
  0
CIRCLE
  5
1EA
  8
TFAS-0007
  6
CONTINUOUS
 62
     7
 10
6315.698105681567
 20
-5071.134769999785
 30
0.0
 40
1.499999999999999
  0
CIRCLE
  5
1EB
  8
TFAS-0007
  6
CONTINUOUS
 62
     7
 10
6310.698105681567
 20
-5066.134769999784
 30
0.0
 40
1.499999999999999
  0
CIRCLE
  5
1EC
  8
TFAS-0007
  6
CONTINUOUS
 62
     7
 10
6325.698115681566
 20
-5071.134769999785
 30
0.0
 40
1.499999999999999
  0
CIRCLE
  5
1ED
  8
TFAS-0007
  6
CONTINUOUS
 62
     7
 10
6320.698115681566
 20
-5066.134769999784
 30
0.0
 40
1.499999999999999
  0
CIRCLE
  5
1EE
  8
TFAS-0007
  6
CONTINUOUS
 62
     7
 10
6335.698125681566
 20
-5071.134769999785
 30
0.0
 40
1.499999999999999
  0
CIRCLE
  5
1EF
  8
TFAS-0007
  6
CONTINUOUS
 62
     7
 10
6330.698125681566
 20
-5066.134769999784
 30
0.0
 40
1.499999999999999
  0
CIRCLE
  5
1F0
  8
TFAS-0007
  6
CONTINUOUS
 62
     7
 10
6230.698035681568
 20
-5066.134769999784
 30
0.0
 40
1.499999999999999
  0
CIRCLE
  5
1F1
  8
TFAS-0007
  6
CONTINUOUS
 62
     7
 10
6225.698035681568
 20
-5071.134769999785
 30
0.0
 40
1.499999999999999
  0
CIRCLE
  5
1F2
  8
TFAS-0007
  6
CONTINUOUS
 62
     7
 10
6220.698025681569
 20
-5066.134769999784
 30
0.0
 40
1.499999999999999
  0
CIRCLE
  5
1F3
  8
TFAS-0007
  6
CONTINUOUS
 62
     7
 10
6235.698035681568
 20
-5071.134769999785
 30
0.0
 40
1.499999999999999
  0
CIRCLE
  5
1F4
  8
TFAS-0007
  6
CONTINUOUS
 62
     7
 10
6245.698045681568
 20
-5071.134769999785
 30
0.0
 40
1.499999999999999
  0
CIRCLE
  5
1F5
  8
TFAS-0007
  6
CONTINUOUS
 62
     7
 10
6240.698045681568
 20
-5066.134769999784
 30
0.0
 40
1.499999999999999
  0
CIRCLE
  5
1F6
  8
TFAS-0007
  6
CONTINUOUS
 62
     7
 10
6128.448135681566
 20
-5059.134769999785
 30
0.0
 40
1.499999999999999
  0
CIRCLE
  5
1F7
  8
TFAS-0007
  6
CONTINUOUS
 62
     7
 10
6123.448135681566
 20
-5054.134769999784
 30
0.0
 40
1.499999999999999
  0
CIRCLE
  5
1F8
  8
TFAS-0007
  6
CONTINUOUS
 62
     7
 10
6128.448135681566
 20
-5071.134769999785
 30
0.0
 40
1.499999999999999
  0
CIRCLE
  5
1F9
  8
TFAS-0007
  6
CONTINUOUS
 62
     7
 10
6123.448135681566
 20
-5066.134769999784
 30
0.0
 40
1.499999999999999
  0
CIRCLE
  5
1FA
  8
TFAS-0007
  6
CONTINUOUS
 62
     7
 10
6215.698025681569
 20
-5059.134769999785
 30
0.0
 40
1.499999999999999
  0
CIRCLE
  5
1FB
  8
TFAS-0007
  6
CONTINUOUS
 62
     7
 10
6210.698015681569
 20
-5054.134769999784
 30
0.0
 40
1.499999999999999
  0
CIRCLE
  5
1FC
  8
TFAS-0007
  6
CONTINUOUS
 62
     7
 10
6215.698025681569
 20
-5071.134769999785
 30
0.0
 40
1.499999999999999
  0
CIRCLE
  5
1FD
  8
TFAS-0007
  6
CONTINUOUS
 62
     7
 10
6210.698015681569
 20
-5066.134769999784
 30
0.0
 40
1.499999999999999
  0
CIRCLE
  5
1FE
  8
TFAS-0007
  6
CONTINUOUS
 62
     7
 10
6128.448135681566
 20
-4850.634769999785
 30
0.0
 40
1.499999999999999
  0
CIRCLE
  5
1FF
  8
TFAS-0007
  6
CONTINUOUS
 62
     7
 10
6123.448135681566
 20
-4845.634769999784
 30
0.0
 40
1.499999999999999
  0
CIRCLE
  5
200
  8
TFAS-0007
  6
CONTINUOUS
 62
     7
 10
6128.448135681566
 20
-4862.634769999785
 30
0.0
 40
1.499999999999999
  0
CIRCLE
  5
201
  8
TFAS-0007
  6
CONTINUOUS
 62
     7
 10
6123.448135681566
 20
-4857.634769999784
 30
0.0
 40
1.499999999999999
  0
CIRCLE
  5
202
  8
TFAS-0007
  6
CONTINUOUS
 62
     7
 10
6215.698025681569
 20
-4850.634769999785
 30
0.0
 40
1.499999999999999
  0
CIRCLE
  5
203
  8
TFAS-0007
  6
CONTINUOUS
 62
     7
 10
6210.698015681569
 20
-4845.634769999784
 30
0.0
 40
1.499999999999999
  0
CIRCLE
  5
204
  8
TFAS-0007
  6
CONTINUOUS
 62
     7
 10
6215.698025681569
 20
-4862.634769999785
 30
0.0
 40
1.499999999999999
  0
CIRCLE
  5
205
  8
TFAS-0007
  6
CONTINUOUS
 62
     7
 10
6210.698015681569
 20
-4857.634769999784
 30
0.0
 40
1.499999999999999
  0
CIRCLE
  5
207
  8
TFAS-0007
  6
HIDDEN
 62
     7
 10
6837.273000000045
 20
-5075.117999999784
 30
0.0
 40
39.0
  0
CIRCLE
  5
208
  8
TFAS-0007
  6
HIDDEN
 62
     7
 10
6837.273000000045
 20
-4841.617999999784
 30
0.0
 40
39.0
  0
LINE
  5
209
  8
TFAS-0008
  6
CONTINUOUS
 62
     7
 10
6193.773000000045
 20
-4841.689075933379
 30
0.0
 11
6193.773000000045
 21
-4793.689075933379
 31
0.0
  0
LINE
  5
20A
  8
TFAS-0008
  6
CONTINUOUS
 62
     7
 10
6193.773000000045
 20
-4854.117999999784
 30
0.0
 11
6193.773000000045
 21
-4841.617999999784
 31
0.0
  0
LINE
  5
20B
  8
TFAS-0008
  6
CONTINUOUS
 62
     7
 10
6193.773000000045
 20
-4836.259016151162
 30
0.0
 11
6193.773000000045
 21
-4841.617999999784
 31
0.0
  0
LINE
  5
20C
  8
TFAS-0008
  6
CONTINUOUS
 62
     7
 10
6193.773000000045
 20
-4841.617999999784
 30
0.0
 11
6193.773000000045
 21
-4854.117999999784
 31
0.0
  0
LINE
  5
20D
  8
TFAS-0008
  6
CONTINUOUS
 62
     7
 10
6193.773000000045
 20
-4841.689075933379
 30
0.0
 11
6193.773000000045
 21
-4889.689075933379
 31
0.0
  0
LINE
  5
20E
  8
TFAS-0008
  6
CONTINUOUS
 62
     7
 10
6145.773000000045
 20
-4836.259016151162
 30
0.0
 11
6145.773000000045
 21
-4841.617999999784
 31
0.0
  0
LINE
  5
20F
  8
TFAS-0008
  6
CONTINUOUS
 62
     7
 10
6145.701924066449
 20
-4841.617999999784
 30
0.0
 11
6145.773000000045
 21
-4841.689075933379
 31
0.0
  0
LINE
  5
210
  8
TFAS-0008
  6
CONTINUOUS
 62
     7
 10
6145.773000000045
 20
-4841.617999999784
 30
0.0
 11
6145.773000000045
 21
-4854.117999999784
 31
0.0
  0
LINE
  5
211
  8
TFAS-0008
  6
CONTINUOUS
 62
     7
 10
6145.773000000045
 20
-4854.117999999784
 30
0.0
 11
6145.773000000045
 21
-4841.617999999784
 31
0.0
  0
LINE
  5
212
  8
TFAS-0008
  6
CONTINUOUS
 62
     7
 10
6145.773000000045
 20
-5015.037435471045
 30
0.0
 11
6145.864435471084
 21
-5014.945999999996
 31
0.0
  0
CIRCLE
  5
213
  8
TFAS-0008
  6
CONTINUOUS
 62
     7
 10
6837.273000000045
 20
-4841.617999999784
 30
0.0
 40
24.0
  0
ARC
  5
214
  8
TFAS-0008
  6
CONTINUOUS
 62
     7
 10
6837.273000000045
 20
-4841.617999999784
 30
0.0
 40
13.5
 50
48.30438410201771
 51
44.06219130869354
  0
POINT
  5
215
  8
TFAS-0008
  6
CONTINUOUS
 62
     7
 10
6877.273000000045
 20
-4841.617999999784
 30
0.0
  0
POINT
  5
216
  8
TFAS-0008
  6
CONTINUOUS
 62
     7
 10
6797.273000000045
 20
-4841.617999999784
 30
0.0
  0
POINT
  5
217
  8
TFAS-0008
  6
CONTINUOUS
 62
     7
 10
6861.273000000045
 20
-5075.117999999784
 30
0.0
  0
POINT
  5
218
  8
TFAS-0008
  6
CONTINUOUS
 62
     7
 10
6813.273000000045
 20
-5075.117999999784
 30
0.0
  0
CIRCLE
  5
219
  8
TFAS-0008
  6
CONTINUOUS
 62
     7
 10
6837.273000000045
 20
-4841.617999999784
 30
0.0
 40
10.0
  0
LINE
  5
21A
  8
TFAS-0008
  6
CONTINUOUS
 62
     7
 10
6814.665761234939
 20
-4833.561154747607
 30
0.0
 11
6829.216154747868
 21
-4819.010761234678
 31
0.0
  0
LINE
  5
21B
  8
TFAS-0008
  6
CONTINUOUS
 62
     7
 10
6813.409727791186
 20
-4839.059828878481
 30
0.0
 11
6834.714828878743
 21
-4817.754727790924
 31
0.0
  0
LINE
  5
21C
  8
TFAS-0008
  6
CONTINUOUS
 62
     7
 10
6813.337386072068
 20
-4843.374811284718
 30
0.0
 11
6839.029811284978
 21
-4817.682386071808
 31
0.0
  0
LINE
  5
21D
  8
TFAS-0008
  6
CONTINUOUS
 62
     7
 10
6831.575778782297
 20
-4829.379059261467
 30
0.0
 11
6842.712331127412
 21
-4818.242506916496
 31
0.0
  0
LINE
  5
21E
  8
TFAS-0008
  6
CONTINUOUS
 62
     7
 10
6813.897506916757
 20
-4847.05733112715
 30
0.0
 11
6825.034059261721
 21
-4835.920778782047
 31
0.0
  0
LINE
  5
21F
  8
TFAS-0008
  6
CONTINUOUS
 62
     7
 10
6837.078071354917
 20
-4828.119407375983
 30
0.0
 11
6845.954338696058
 21
-4819.243140034969
 31
0.0
  0
LINE
  5
220
  8
TFAS-0008
  6
CONTINUOUS
 62
     7
 10
6814.89814003523
 20
-4850.299338695797
 30
0.0
 11
6823.774407376244
 21
-4841.423071354664
 31
0.0
  0
LINE
  5
221
  8
TFAS-0008
  6
CONTINUOUS
 62
     7
 10
6840.841847747128
 20
-4828.598271670892
 30
0.0
 11
6848.846952767159
 21
-4820.593166650989
 31
0.0
  0
LINE
  5
222
  8
TFAS-0008
  6
CONTINUOUS
 62
     7
 10
6816.24816665125
 20
-4853.191952766897
 30
0.0
 11
6824.253271671154
 21
-4845.186847746872
 31
0.0
  0
LINE
  5
223
  8
TFAS-0008
  6
CONTINUOUS
 62
     7
 10
6843.852755013722
 20
-4829.830005091404
 30
0.0
 11
6851.438452477252
 21
-4822.244307628014
 31
0.0
  0
LINE
  5
224
  8
TFAS-0008
  6
CONTINUOUS
 62
     7
 10
6817.899307628275
 20
-4855.783452476991
 30
0.0
 11
6825.485005091668
 21
-4848.197755013467
 31
0.0
  0
LINE
  5
225
  8
TFAS-0008
  6
CONTINUOUS
 62
     7
 10
6846.32392498543
 20
-4831.601475806785
 30
0.0
 11
6853.753894113868
 21
-4824.171506678518
 31
0.0
  0
LINE
  5
226
  8
TFAS-0008
  6
CONTINUOUS
 62
     7
 10
6819.826506678779
 20
-4858.098894113607
 30
0.0
 11
6827.256475807051
 21
-4850.668924985175
 31
0.0
  0
LINE
  5
227
  8
TFAS-0008
  6
CONTINUOUS
 62
     7
 10
6848.315788376651
 20
-4833.852253102706
 30
0.0
 11
6855.802798068289
 21
-4826.365243411217
 31
0.0
  0
LINE
  5
228
  8
TFAS-0008
  6
CONTINUOUS
 62
     7
 10
6822.020243411478
 20
-4860.147798068028
 30
0.0
 11
6829.507253102969
 21
-4852.660788376392
 31
0.0
  0
LINE
  5
229
  8
TFAS-0008
  6
CONTINUOUS
 62
     7
 10
6849.807155588118
 20
-4836.603526578378
 30
0.0
 11
6857.581665664893
 21
-4828.829016501733
 31
0.0
  0
LINE
  5
22A
  8
TFAS-0008
  6
CONTINUOUS
 62
     7
 10
6824.484016501994
 20
-4861.926665664632
 30
0.0
 11
6832.25852657864
 21
-4854.152155587857
 31
0.0
  0
LINE
  5
22B
  8
TFAS-0008
  6
CONTINUOUS
 62
     7
 10
6850.673266444879
 20
-4839.980056408741
 30
0.0
 11
6859.073079112262
 21
-4831.580243741484
 31
0.0
  0
LINE
  5
22C
  8
TFAS-0008
  6
CONTINUOUS
 62
     7
 10
6827.235243741745
 20
-4863.418079112002
 30
0.0
 11
6835.635056409003
 21
-4855.018266444618
 31
0.0
  0
LINE
  5
22D
  8
TFAS-0008
  6
CONTINUOUS
 62
     7
 10
6850.479834325193
 20
-4844.416129215538
 30
0.0
 11
6860.240784490939
 21
-4834.655179049926
 31
0.0
  0
LINE
  5
22E
  8
TFAS-0008
  6
CONTINUOUS
 62
     7
 10
6830.310179050186
 20
-4864.58578449068
 30
0.0
 11
6840.071129215801
 21
-4854.824834324932
 31
0.0
  0
LINE
  5
22F
  8
TFAS-0008
  6
CONTINUOUS
 62
     7
 10
6833.77664680095
 20
-4865.361957427036
 30
0.0
 11
6861.016957427297
 21
-4838.12164680069
 31
0.0
  0
LINE
  5
230
  8
TFAS-0008
  6
CONTINUOUS
 62
     7
 10
6837.768357523975
 20
-4865.612887391132
 30
0.0
 11
6861.267887391394
 21
-4842.113357523714
 31
0.0
  0
LINE
  5
231
  8
TFAS-0008
  6
CONTINUOUS
 62
     7
 10
6842.60587643796
 20
-4865.018009164268
 30
0.0
 11
6860.67300916453
 21
-4846.950876437698
 31
0.0
  0
LINE
  5
232
  8
TFAS-0008
  6
CONTINUOUS
 62
     7
 10
6849.74160073426
 20
-4862.124925555087
 30
0.0
 11
6857.779925555347
 21
-4854.086600733999
 31
0.0
  0
INSERT
  5
236
  8
TFAS-0008
  2
INS-G8QK5
 10
6169.773
 20
-4958.368
 30
0.0
  0
INSERT
  5
24C
  8
TFAS-0008
  2
INS-GHXIH
 10
6169.773
 20
-4958.368
 30
0.0
  0
ARC
  5
2ED
  8
TFAS-0008
  6
CONTINUOUS
 62
     7
 10
6837.273000000045
 20
-5075.117999999784
 30
0.0
 40
13.5
 50
48.30438410201771
 51
44.06219130869354
  0
CIRCLE
  5
2EE
  8
TFAS-0008
  6
CONTINUOUS
 62
     7
 10
6837.273000000045
 20
-5075.117999999784
 30
0.0
 40
10.0
  0
LINE
  5
2EF
  8
TFAS-0008
  6
CONTINUOUS
 62
     7
 10
6817.899307628275
 20
-5089.283452476991
 30
0.0
 11
6825.485005091668
 21
-5081.697755013467
 31
0.0
  0
LINE
  5
2F0
  8
TFAS-0008
  6
CONTINUOUS
 62
     7
 10
6819.826506678779
 20
-5091.598894113607
 30
0.0
 11
6827.256475807051
 21
-5084.168924985175
 31
0.0
  0
LINE
  5
2F1
  8
TFAS-0008
  6
CONTINUOUS
 62
     7
 10
6822.020243411478
 20
-5093.647798068028
 30
0.0
 11
6829.507253102969
 21
-5086.160788376392
 31
0.0
  0
LINE
  5
2F2
  8
TFAS-0008
  6
CONTINUOUS
 62
     7
 10
6824.484016501994
 20
-5095.426665664632
 30
0.0
 11
6832.25852657864
 21
-5087.652155587857
 31
0.0
  0
LINE
  5
2F3
  8
TFAS-0008
  6
CONTINUOUS
 62
     7
 10
6827.235243741745
 20
-5096.918079112002
 30
0.0
 11
6835.635056409003
 21
-5088.518266444618
 31
0.0
  0
LINE
  5
2F4
  8
TFAS-0008
  6
CONTINUOUS
 62
     7
 10
6830.310179050186
 20
-5098.08578449068
 30
0.0
 11
6840.071129215801
 21
-5088.324834324932
 31
0.0
  0
CIRCLE
  5
2F5
  8
TFAS-0008
  6
CONTINUOUS
 62
     7
 10
6837.273000000045
 20
-5075.117999999784
 30
0.0
 40
24.0
  0
LINE
  5
2F6
  8
TFAS-0008
  6
CONTINUOUS
 62
     7
 10
6850.479834325193
 20
-5077.916129215538
 30
0.0
 11
6860.240784490939
 21
-5068.155179049926
 31
0.0
  0
LINE
  5
2F7
  8
TFAS-0008
  6
CONTINUOUS
 62
     7
 10
6833.77664680095
 20
-5098.861957427036
 30
0.0
 11
6861.016957427297
 21
-5071.62164680069
 31
0.0
  0
LINE
  5
2F8
  8
TFAS-0008
  6
CONTINUOUS
 62
     7
 10
6837.768357523975
 20
-5099.112887391132
 30
0.0
 11
6861.267887391394
 21
-5075.613357523714
 31
0.0
  0
LINE
  5
2F9
  8
TFAS-0008
  6
CONTINUOUS
 62
     7
 10
6842.60587643796
 20
-5098.518009164268
 30
0.0
 11
6860.67300916453
 21
-5080.450876437698
 31
0.0
  0
LINE
  5
2FA
  8
TFAS-0008
  6
CONTINUOUS
 62
     7
 10
6849.74160073426
 20
-5095.624925555087
 30
0.0
 11
6857.779925555347
 21
-5087.586600733999
 31
0.0
  0
LINE
  5
2FB
  8
TFAS-0008
  6
CONTINUOUS
 62
     7
 10
6840.841847747128
 20
-5062.098271670892
 30
0.0
 11
6848.846952767159
 21
-5054.093166650989
 31
0.0
  0
LINE
  5
2FC
  8
TFAS-0008
  6
CONTINUOUS
 62
     7
 10
6843.852755013722
 20
-5063.330005091404
 30
0.0
 11
6851.438452477252
 21
-5055.744307628014
 31
0.0
  0
LINE
  5
2FD
  8
TFAS-0008
  6
CONTINUOUS
 62
     7
 10
6848.315788376651
 20
-5067.352253102706
 30
0.0
 11
6855.802798068289
 21
-5059.865243411217
 31
0.0
  0
LINE
  5
2FE
  8
TFAS-0008
  6
CONTINUOUS
 62
     7
 10
6849.807155588118
 20
-5070.103526578378
 30
0.0
 11
6857.581665664893
 21
-5062.329016501733
 31
0.0
  0
LINE
  5
2FF
  8
TFAS-0008
  6
CONTINUOUS
 62
     7
 10
6850.673266444879
 20
-5073.480056408741
 30
0.0
 11
6859.073079112262
 21
-5065.080243741484
 31
0.0
  0
LINE
  5
300
  8
TFAS-0008
  6
CONTINUOUS
 62
     7
 10
6846.32392498543
 20
-5065.101475806785
 30
0.0
 11
6853.753894113868
 21
-5057.671506678518
 31
0.0
  0
LINE
  5
301
  8
TFAS-0008
  6
CONTINUOUS
 62
     7
 10
6813.897506916757
 20
-5080.55733112715
 30
0.0
 11
6825.034059261721
 21
-5069.420778782047
 31
0.0
  0
LINE
  5
302
  8
TFAS-0008
  6
CONTINUOUS
 62
     7
 10
6814.89814003523
 20
-5083.799338695797
 30
0.0
 11
6823.774407376244
 21
-5074.923071354664
 31
0.0
  0
LINE
  5
303
  8
TFAS-0008
  6
CONTINUOUS
 62
     7
 10
6816.24816665125
 20
-5086.691952766897
 30
0.0
 11
6824.253271671154
 21
-5078.686847746872
 31
0.0
  0
LINE
  5
304
  8
TFAS-0008
  6
CONTINUOUS
 62
     7
 10
6813.337386072068
 20
-5076.874811284718
 30
0.0
 11
6839.029811284978
 21
-5051.182386071808
 31
0.0
  0
LINE
  5
305
  8
TFAS-0008
  6
CONTINUOUS
 62
     7
 10
6813.409727791186
 20
-5072.559828878481
 30
0.0
 11
6834.714828878743
 21
-5051.254727790924
 31
0.0
  0
LINE
  5
306
  8
TFAS-0008
  6
CONTINUOUS
 62
     7
 10
6814.665761234939
 20
-5067.061154747607
 30
0.0
 11
6829.216154747868
 21
-5052.510761234678
 31
0.0
  0
LINE
  5
307
  8
TFAS-0008
  6
CONTINUOUS
 62
     7
 10
6831.575778782297
 20
-5062.879059261467
 30
0.0
 11
6842.712331127412
 21
-5051.742506916496
 31
0.0
  0
LINE
  5
308
  8
TFAS-0008
  6
CONTINUOUS
 62
     7
 10
6837.078071354917
 20
-5061.619407375983
 30
0.0
 11
6845.954338696058
 21
-5052.743140034969
 31
0.0
  0
LINE
  5
309
  8
TFAS-0015
  6
CONTINUOUS
 62
     7
 10
6143.773000000045
 20
-5125.117999999784
 30
0.0
 11
6195.773000000045
 21
-5125.117999999784
 31
0.0
  0
LINE
  5
30A
  8
TFAS-0015
  6
CONTINUOUS
 62
     7
 10
6147.308805991422
 20
-5125.117999999784
 30
0.0
 11
6168.247509874052
 21
-5104.179296117153
 31
0.0
  0
LINE
  5
30B
  8
TFAS-0015
  6
CONTINUOUS
 62
     7
 10
6148.723019553793
 20
-5125.117999999784
 30
0.0
 11
6169.661723436423
 21
-5104.179296117153
 31
0.0
  0
LINE
  5
30C
  8
TFAS-0015
  6
CONTINUOUS
 62
     7
 10
6161.450941615151
 20
-5125.117999999784
 30
0.0
 11
6182.389645497781
 21
-5104.179296117153
 31
0.0
  0
LINE
  5
30D
  8
TFAS-0015
  6
CONTINUOUS
 62
     7
 10
6162.865155177525
 20
-5125.117999999784
 30
0.0
 11
6183.803859060155
 21
-5104.179296117153
 31
0.0
  0
LINE
  5
30E
  8
TFAS-0015
  6
CONTINUOUS
 62
     7
 10
6195.773000000045
 20
-5125.117999999784
 30
0.0
 11
6195.773000000045
 21
-5104.179296117153
 31
0.0
  0
LINE
  5
30F
  8
TFAS-0015
  6
CONTINUOUS
 62
     7
 10
6143.773000000045
 20
-5115.925883929803
 30
0.0
 11
6155.519587812693
 21
-5104.179296117153
 31
0.0
  0
LINE
  5
310
  8
TFAS-0015
  6
CONTINUOUS
 62
     7
 10
6143.773000000045
 20
-5114.511670367428
 30
0.0
 11
6154.10537425032
 21
-5104.179296117153
 31
0.0
  0
LINE
  5
311
  8
TFAS-0015
  6
CONTINUOUS
 62
     7
 10
6143.773000000045
 20
-5104.179296117153
 30
0.0
 11
6143.773000000045
 21
-5125.117999999784
 31
0.0
  0
LINE
  5
312
  8
TFAS-0015
  6
CONTINUOUS
 62
     7
 10
6159.10537425032
 20
-5099.179296117153
 30
0.0
 11
6183.166670367689
 21
-5075.117999999784
 31
0.0
  0
LINE
  5
313
  8
TFAS-0015
  6
CONTINUOUS
 62
     7
 10
6160.519587812693
 20
-5099.179296117153
 30
0.0
 11
6184.580883930063
 21
-5075.117999999784
 31
0.0
  0
LINE
  5
314
  8
TFAS-0015
  6
CONTINUOUS
 62
     7
 10
6196.313153411937
 20
-5099.179296117153
 30
0.0
 11
6143.084860112526
 21
-5099.179296117153
 31
0.0
  0
LINE
  5
315
  8
TFAS-0015
  6
CONTINUOUS
 62
     7
 10
6195.773000000045
 20
-5104.179296117153
 30
0.0
 11
6143.084860112526
 21
-5104.179296117153
 31
0.0
  0
LINE
  5
316
  8
TFAS-0015
  6
CONTINUOUS
 62
     7
 10
6143.084860112526
 20
-5099.179296117153
 30
0.0
 11
6143.084860112526
 21
-5104.179296117153
 31
0.0
  0
LINE
  5
317
  8
TFAS-0015
  6
CONTINUOUS
 62
     7
 10
6196.313153411937
 20
-5099.179296117153
 30
0.0
 11
6196.313153411937
 21
-5104.179296117153
 31
0.0
  0
LINE
  5
318
  8
TFAS-0015
  6
CONTINUOUS
 62
     7
 10
6195.773000000045
 20
-5099.179296117153
 30
0.0
 11
6195.773000000045
 21
-5075.117999999784
 31
0.0
  0
LINE
  5
319
  8
TFAS-0015
  6
CONTINUOUS
 62
     7
 10
6195.773000000045
 20
-5104.179296117153
 30
0.0
 11
6196.313153411937
 21
-5104.179296117153
 31
0.0
  0
LINE
  5
31A
  8
TFAS-0015
  6
CONTINUOUS
 62
     7
 10
6143.773000000045
 20
-5075.117999999784
 30
0.0
 11
6143.773000000045
 21
-5099.179296117153
 31
0.0
  0
LINE
  5
31B
  8
TFAS-0015
  6
CONTINUOUS
 62
     7
 10
6144.963238626588
 20
-5099.179296117153
 30
0.0
 11
6169.024534743959
 21
-5075.117999999784
 31
0.0
  0
LINE
  5
31C
  8
TFAS-0015
  6
CONTINUOUS
 62
     7
 10
6146.377452188962
 20
-5099.179296117153
 30
0.0
 11
6170.438748306332
 21
-5075.117999999784
 31
0.0
  0
LINE
  5
31D
  8
TFAS-0015
  6
CONTINUOUS
 62
     7
 10
6195.773000000045
 20
-5075.117999999784
 30
0.0
 11
6143.773000000045
 21
-5075.117999999784
 31
0.0
  0
LINE
  5
31E
  8
TFAS-0015
  6
CONTINUOUS
 62
     7
 10
6143.773000000044
 20
-5086.227399119968
 30
0.0
 11
6154.882399120229
 21
-5075.117999999784
 31
0.0
  0
LINE
  5
31F
  8
TFAS-0015
  6
CONTINUOUS
 62
     7
 10
6143.773000000045
 20
-5087.64161268234
 30
0.0
 11
6156.2966126826
 21
-5075.117999999784
 31
0.0
  0
LINE
  5
320
  8
TFAS-0015
  6
CONTINUOUS
 62
     7
 10
6121.928483001024
 20
-5077.117999999784
 30
0.0
 11
6121.928483001024
 21
-5075.117999999784
 31
0.0
  0
LINE
  5
321
  8
TFAS-0015
  6
CONTINUOUS
 62
     7
 10
6124.928483001024
 20
-5077.117999999784
 30
0.0
 11
6124.928483001024
 21
-5075.117999999784
 31
0.0
  0
LINE
  5
322
  8
TFAS-0015
  6
CONTINUOUS
 62
     7
 10
6127.928483001024
 20
-5077.117999999784
 30
0.0
 11
6127.928483001024
 21
-5075.117999999784
 31
0.0
  0
LINE
  5
323
  8
TFAS-0015
  6
CONTINUOUS
 62
     7
 10
6130.928483001024
 20
-5077.117999999784
 30
0.0
 11
6130.928483001024
 21
-5075.117999999784
 31
0.0
  0
LINE
  5
324
  8
TFAS-0015
  6
CONTINUOUS
 62
     7
 10
6133.928483001024
 20
-5077.117999999784
 30
0.0
 11
6133.928483001024
 21
-5075.117999999784
 31
0.0
  0
LINE
  5
325
  8
TFAS-0015
  6
CONTINUOUS
 62
     7
 10
6136.928483001024
 20
-5077.117999999784
 30
0.0
 11
6136.928483001024
 21
-5075.117999999784
 31
0.0
  0
LINE
  5
326
  8
TFAS-0015
  6
CONTINUOUS
 62
     7
 10
6139.928483001024
 20
-5077.117999999784
 30
0.0
 11
6139.928483001024
 21
-5075.117999999784
 31
0.0
  0
LINE
  5
327
  8
TFAS-0015
  6
CONTINUOUS
 62
     7
 10
6142.928483001024
 20
-5077.117999999784
 30
0.0
 11
6142.928483001024
 21
-5075.117999999784
 31
0.0
  0
LINE
  5
328
  8
TFAS-0015
  6
CONTINUOUS
 62
     7
 10
6144.808224277243
 20
-5075.117999999784
 30
0.0
 11
6119.808224277243
 21
-5075.117999999784
 31
0.0
  0
LINE
  5
329
  8
TFAS-0015
  6
CONTINUOUS
 62
     7
 10
6144.808224277243
 20
-5075.117999999784
 30
0.0
 11
6194.808224277243
 21
-5075.117999999784
 31
0.0
  0
LINE
  5
32A
  8
TFAS-0015
  6
CONTINUOUS
 62
     7
 10
6119.808224277243
 20
-5077.117999999784
 30
0.0
 11
6143.773000000045
 21
-5077.117999999784
 31
0.0
  0
LINE
  5
32B
  8
TFAS-0015
  6
CONTINUOUS
 62
     7
 10
6125.615568126171
 20
-5077.558510540124
 30
0.0
 11
6125.615568126171
 21
-5067.558510540124
 31
0.0
  0
LINE
  5
32C
  8
TFAS-0015
  6
CONTINUOUS
 62
     7
 10
6125.615568126171
 20
-5067.558510540124
 30
0.0
 11
6123.615568126171
 21
-5067.558510540124
 31
0.0
  0
LINE
  5
32D
  8
TFAS-0015
  6
CONTINUOUS
 62
     7
 10
6123.615568126171
 20
-5067.558510540124
 30
0.0
 11
6123.615568126171
 21
-5077.558510540124
 31
0.0
  0
LINE
  5
32E
  8
TFAS-0015
  6
CONTINUOUS
 62
     7
 10
6123.615568126171
 20
-5077.558510540124
 30
0.0
 11
6125.615568126171
 21
-5077.558510540124
 31
0.0
  0
LINE
  5
32F
  8
TFAS-0015
  6
CONTINUOUS
 62
     7
 10
6216.488067061888
 20
-5078.035309177842
 30
0.0
 11
6216.488067061888
 21
-5068.035309177842
 31
0.0
  0
LINE
  5
330
  8
TFAS-0015
  6
CONTINUOUS
 62
     7
 10
6214.488067061888
 20
-5068.035309177842
 30
0.0
 11
6214.488067061888
 21
-5078.035309177842
 31
0.0
  0
LINE
  5
331
  8
TFAS-0015
  6
CONTINUOUS
 62
     7
 10
6216.488067061888
 20
-5068.035309177842
 30
0.0
 11
6214.488067061888
 21
-5068.035309177842
 31
0.0
  0
LINE
  5
332
  8
TFAS-0015
  6
CONTINUOUS
 62
     7
 10
6219.808224277243
 20
-5077.117999999784
 30
0.0
 11
6219.808224277243
 21
-5075.117999999784
 31
0.0
  0
LINE
  5
333
  8
TFAS-0015
  6
CONTINUOUS
 62
     7
 10
6219.808224277243
 20
-5075.117999999784
 30
0.0
 11
6194.808224277243
 21
-5075.117999999784
 31
0.0
  0
LINE
  5
334
  8
TFAS-0015
  6
CONTINUOUS
 62
     7
 10
6195.773000000045
 20
-5077.117999999784
 30
0.0
 11
6219.808224277243
 21
-5077.117999999784
 31
0.0
  0
LINE
  5
335
  8
TFAS-0015
  6
CONTINUOUS
 62
     7
 10
6211.928483001024
 20
-5077.117999999784
 30
0.0
 11
6211.928483001024
 21
-5075.117999999784
 31
0.0
  0
LINE
  5
336
  8
TFAS-0015
  6
CONTINUOUS
 62
     7
 10
6214.928483001024
 20
-5077.117999999784
 30
0.0
 11
6214.928483001024
 21
-5075.117999999784
 31
0.0
  0
LINE
  5
337
  8
TFAS-0015
  6
CONTINUOUS
 62
     7
 10
6217.928483001024
 20
-5077.117999999784
 30
0.0
 11
6217.928483001024
 21
-5075.117999999784
 31
0.0
  0
LINE
  5
338
  8
TFAS-0015
  6
CONTINUOUS
 62
     7
 10
6208.928483001024
 20
-5077.117999999784
 30
0.0
 11
6208.928483001024
 21
-5075.117999999784
 31
0.0
  0
LINE
  5
339
  8
TFAS-0015
  6
CONTINUOUS
 62
     7
 10
6196.928483001024
 20
-5077.117999999784
 30
0.0
 11
6196.928483001024
 21
-5075.117999999784
 31
0.0
  0
LINE
  5
33A
  8
TFAS-0015
  6
CONTINUOUS
 62
     7
 10
6199.928483001024
 20
-5077.117999999784
 30
0.0
 11
6199.928483001024
 21
-5075.117999999784
 31
0.0
  0
LINE
  5
33B
  8
TFAS-0015
  6
CONTINUOUS
 62
     7
 10
6202.928483001024
 20
-5077.117999999784
 30
0.0
 11
6202.928483001024
 21
-5075.117999999784
 31
0.0
  0
LINE
  5
33C
  8
TFAS-0015
  6
CONTINUOUS
 62
     7
 10
6205.928483001024
 20
-5077.117999999784
 30
0.0
 11
6205.928483001024
 21
-5075.117999999784
 31
0.0
  0
LINE
  5
33D
  8
TFAS-0015
  6
CONTINUOUS
 62
     7
 10
6214.488067061888
 20
-5078.035309177842
 30
0.0
 11
6216.488067061888
 21
-5078.035309177842
 31
0.0
  0
LINE
  5
33E
  8
TFAS-0015
  6
CONTINUOUS
 62
     7
 10
6119.808224277243
 20
-5075.117999999784
 30
0.0
 11
6119.808224277243
 21
-5077.117999999784
 31
0.0
  0
LINE
  5
33F
  8
TFAS-0015
  6
CONTINUOUS
 62
     7
 10
6175.593077238669
 20
-5125.117999999784
 30
0.0
 11
6195.773000000037
 21
-5104.938077238416
 31
0.0
  0
LINE
  5
340
  8
TFAS-0015
  6
CONTINUOUS
 62
     7
 10
6177.007290801042
 20
-5125.117999999784
 30
0.0
 11
6195.773000000041
 21
-5106.352290800784
 31
0.0
  0
LINE
  5
341
  8
TFAS-0015
  6
CONTINUOUS
 62
     7
 10
6189.735212862489
 20
-5125.117999999784
 30
0.0
 11
6195.773000000037
 21
-5119.080212862236
 31
0.0
  0
LINE
  5
342
  8
TFAS-0015
  6
CONTINUOUS
 62
     7
 10
6191.149426424862
 20
-5125.117999999784
 30
0.0
 11
6195.773000000041
 21
-5120.494426424605
 31
0.0
  0
LINE
  5
343
  8
TFAS-0015
  6
CONTINUOUS
 62
     7
 10
6188.803859060256
 20
-5099.179296117153
 30
0.0
 11
6195.773000000054
 21
-5092.210155177356
 31
0.0
  0
LINE
  5
344
  8
TFAS-0015
  6
CONTINUOUS
 62
     7
 10
6190.21807262263
 20
-5099.179296117153
 30
0.0
 11
6195.773000000077
 21
-5093.624368739705
 31
0.0
  0
LINE
  5
345
  8
TFAS-0015
  6
CONTINUOUS
 62
     7
 10
6174.661723436525
 20
-5099.179296117153
 30
0.0
 11
6195.773000000054
 21
-5078.068019553625
 31
0.0
  0
LINE
  5
346
  8
TFAS-0015
  6
CONTINUOUS
 62
     7
 10
6176.075936998898
 20
-5099.179296117153
 30
0.0
 11
6195.773000000078
 21
-5079.482233115974
 31
0.0
  0
POLYLINE
  5
347
  8
TFAS-0015
  6
CONTINUOUS
 62
     7
 66
     1
 10
0.0
 20
0.0
 30
0.0
 70
     1
  0
VERTEX
  5
348
  8
TFAS-0015
  6
CONTINUOUS
 62
     7
 10
6788.273000000045
 20
-5124.117999999784
 30
0.0
  0
VERTEX
  5
349
  8
TFAS-0015
  6
CONTINUOUS
 62
     7
 10
6886.273000000045
 20
-5124.117999999784
 30
0.0
  0
VERTEX
  5
34A
  8
TFAS-0015
  6
CONTINUOUS
 62
     7
 10
6886.273000000045
 20
-5026.117999999784
 30
0.0
  0
VERTEX
  5
34B
  8
TFAS-0015
  6
CONTINUOUS
 62
     7
 10
6788.273000000045
 20
-5026.117999999784
 30
0.0
  0
SEQEND
  5
34C
  8
TFAS-0015
  6
CONTINUOUS
 62
     7
  0
LINE
  5
34D
  8
TFAS-0015
  6
CONTINUOUS
 62
     7
 10
6794.896315792277
 20
-5039.696647176931
 30
0.0
 11
6795.603422573462
 21
-5040.403753958117
 31
0.0
  0
LINE
  5
34E
  8
TFAS-0015
  6
CONTINUOUS
 62
     7
 10
6801.967383604142
 20
-5032.625579365065
 30
0.0
 11
6794.896315792277
 21
-5039.696647176931
 31
0.0
  0
LINE
  5
34F
  8
TFAS-0015
  6
CONTINUOUS
 62
     7
 10
6795.603422573462
 20
-5040.403753958117
 30
0.0
 11
6802.674490385329
 21
-5033.332686146252
 31
0.0
  0
LINE
  5
350
  8
TFAS-0015
  6
CONTINUOUS
 62
     7
 10
6802.674490385329
 20
-5033.332686146252
 30
0.0
 11
6801.967383604142
 21
-5032.625579365065
 31
0.0
  0
LINE
  5
351
  8
TFAS-0015
  6
CONTINUOUS
 62
     7
 10
6876.506214773763
 20
-5029.333090614632
 30
0.0
 11
6875.799107992576
 21
-5030.040197395819
 31
0.0
  0
LINE
  5
352
  8
TFAS-0015
  6
CONTINUOUS
 62
     7
 10
6883.577282585629
 20
-5036.404158426498
 30
0.0
 11
6876.506214773763
 21
-5029.333090614632
 31
0.0
  0
LINE
  5
353
  8
TFAS-0015
  6
CONTINUOUS
 62
     7
 10
6875.799107992576
 20
-5030.040197395819
 30
0.0
 11
6882.870175804441
 21
-5037.111265207684
 31
0.0
  0
LINE
  5
354
  8
TFAS-0015
  6
CONTINUOUS
 62
     7
 10
6882.870175804441
 20
-5037.111265207684
 30
0.0
 11
6883.577282585629
 21
-5036.404158426498
 31
0.0
  0
LINE
  5
355
  8
TFAS-0015
  6
CONTINUOUS
 62
     7
 10
6873.329741429752
 20
-5118.404446876942
 30
0.0
 11
6874.036848210937
 21
-5119.111553658128
 31
0.0
  0
LINE
  5
356
  8
TFAS-0015
  6
CONTINUOUS
 62
     7
 10
6880.400809241617
 20
-5111.333379065077
 30
0.0
 11
6873.329741429752
 21
-5118.404446876942
 31
0.0
  0
LINE
  5
357
  8
TFAS-0015
  6
CONTINUOUS
 62
     7
 10
6874.036848210937
 20
-5119.111553658128
 30
0.0
 11
6881.107916022804
 21
-5112.040485846263
 31
0.0
  0
LINE
  5
358
  8
TFAS-0015
  6
CONTINUOUS
 62
     7
 10
6881.107916022804
 20
-5112.040485846263
 30
0.0
 11
6880.400809241617
 21
-5111.333379065077
 31
0.0
  0
LINE
  5
359
  8
TFAS-0015
  6
CONTINUOUS
 62
     7
 10
6795.420506531773
 20
-5111.333379065077
 30
0.0
 11
6794.713399750584
 21
-5112.040485846263
 31
0.0
  0
LINE
  5
35A
  8
TFAS-0015
  6
CONTINUOUS
 62
     7
 10
6802.491574343638
 20
-5118.404446876942
 30
0.0
 11
6795.420506531773
 21
-5111.333379065077
 31
0.0
  0
LINE
  5
35B
  8
TFAS-0015
  6
CONTINUOUS
 62
     7
 10
6794.713399750584
 20
-5112.040485846263
 30
0.0
 11
6801.784467562451
 21
-5119.111553658128
 31
0.0
  0
LINE
  5
35C
  8
TFAS-0015
  6
CONTINUOUS
 62
     7
 10
6801.784467562451
 20
-5119.111553658128
 30
0.0
 11
6802.491574343638
 21
-5118.404446876942
 31
0.0
  0
CIRCLE
  5
35D
  8
TFAS-0015
  6
CONTINUOUS
 62
     7
 10
6837.273000000045
 20
-5075.117999999784
 30
0.0
 40
26.0
  0
LINE
  5
35E
  8
TFAS-0009
  6
CONTINUOUS
 62
     7
 10
6125.773000000045
 20
-4841.617999999784
 30
0.0
 11
6145.773000000045
 21
-4836.259016151162
 31
0.0
  0
LINE
  5
35F
  8
TFAS-0009
  6
CONTINUOUS
 62
     7
 10
6128.921403113121
 20
-4841.617999999784
 30
0.0
 11
6128.256067249009
 21
-4840.952664135672
 31
0.0
  0
LINE
  5
360
  8
TFAS-0009
  6
CONTINUOUS
 62
     7
 10
6128.921403113121
 20
-4841.617999999784
 30
0.0
 11
6128.256067249009
 21
-4840.952664135672
 31
0.0
  0
LINE
  5
361
  8
TFAS-0009
  6
CONTINUOUS
 62
     7
 10
6130.335616675494
 20
-4841.617999999784
 30
0.0
 11
6129.371422320659
 21
-4840.653805644949
 31
0.0
  0
LINE
  5
362
  8
TFAS-0009
  6
CONTINUOUS
 62
     7
 10
6130.335616675494
 20
-4841.617999999784
 30
0.0
 11
6129.371422320659
 21
-4840.653805644949
 31
0.0
  0
LINE
  5
363
  8
TFAS-0009
  6
CONTINUOUS
 62
     7
 10
6131.749830237867
 20
-4841.617999999784
 30
0.0
 11
6130.48677739231
 21
-4840.354947154226
 31
0.0
  0
LINE
  5
364
  8
TFAS-0009
  6
CONTINUOUS
 62
     7
 10
6131.749830237867
 20
-4841.617999999784
 30
0.0
 11
6130.48677739231
 21
-4840.354947154226
 31
0.0
  0
LINE
  5
365
  8
TFAS-0009
  6
CONTINUOUS
 62
     7
 10
6133.16404380024
 20
-4841.617999999784
 30
0.0
 11
6131.60213246396
 21
-4840.056088663504
 31
0.0
  0
LINE
  5
366
  8
TFAS-0009
  6
CONTINUOUS
 62
     7
 10
6133.16404380024
 20
-4841.617999999784
 30
0.0
 11
6131.60213246396
 21
-4840.056088663504
 31
0.0
  0
LINE
  5
367
  8
TFAS-0009
  6
CONTINUOUS
 62
     7
 10
6134.578257362613
 20
-4841.617999999784
 30
0.0
 11
6132.71748753561
 21
-4839.757230172781
 31
0.0
  0
LINE
  5
368
  8
TFAS-0009
  6
CONTINUOUS
 62
     7
 10
6134.578257362613
 20
-4841.617999999784
 30
0.0
 11
6132.71748753561
 21
-4839.757230172781
 31
0.0
  0
LINE
  5
369
  8
TFAS-0009
  6
CONTINUOUS
 62
     7
 10
6135.992470924986
 20
-4841.617999999784
 30
0.0
 11
6133.83284260726
 21
-4839.458371682059
 31
0.0
  0
LINE
  5
36A
  8
TFAS-0009
  6
CONTINUOUS
 62
     7
 10
6135.992470924986
 20
-4841.617999999784
 30
0.0
 11
6133.83284260726
 21
-4839.458371682059
 31
0.0
  0
LINE
  5
36B
  8
TFAS-0009
  6
CONTINUOUS
 62
     7
 10
6137.40668448736
 20
-4841.617999999784
 30
0.0
 11
6134.948197678911
 21
-4839.159513191336
 31
0.0
  0
LINE
  5
36C
  8
TFAS-0009
  6
CONTINUOUS
 62
     7
 10
6137.40668448736
 20
-4841.617999999784
 30
0.0
 11
6134.948197678911
 21
-4839.159513191336
 31
0.0
  0
LINE
  5
36D
  8
TFAS-0009
  6
CONTINUOUS
 62
     7
 10
6138.820898049732
 20
-4841.617999999784
 30
0.0
 11
6136.063552750562
 21
-4838.860654700613
 31
0.0
  0
LINE
  5
36E
  8
TFAS-0009
  6
CONTINUOUS
 62
     7
 10
6138.820898049732
 20
-4841.617999999784
 30
0.0
 11
6136.063552750562
 21
-4838.860654700613
 31
0.0
  0
LINE
  5
36F
  8
TFAS-0009
  6
CONTINUOUS
 62
     7
 10
6140.235111612105
 20
-4841.617999999784
 30
0.0
 11
6137.178907822212
 21
-4838.56179620989
 31
0.0
  0
LINE
  5
370
  8
TFAS-0009
  6
CONTINUOUS
 62
     7
 10
6140.235111612105
 20
-4841.617999999784
 30
0.0
 11
6137.178907822212
 21
-4838.56179620989
 31
0.0
  0
LINE
  5
371
  8
TFAS-0009
  6
CONTINUOUS
 62
     7
 10
6141.649325174479
 20
-4841.617999999784
 30
0.0
 11
6138.294262893863
 21
-4838.262937719168
 31
0.0
  0
LINE
  5
372
  8
TFAS-0009
  6
CONTINUOUS
 62
     7
 10
6141.649325174479
 20
-4841.617999999784
 30
0.0
 11
6138.294262893863
 21
-4838.262937719168
 31
0.0
  0
LINE
  5
373
  8
TFAS-0009
  6
CONTINUOUS
 62
     7
 10
6143.063538736852
 20
-4841.617999999784
 30
0.0
 11
6139.409617965513
 21
-4837.964079228444
 31
0.0
  0
LINE
  5
374
  8
TFAS-0009
  6
CONTINUOUS
 62
     7
 10
6143.063538736852
 20
-4841.617999999784
 30
0.0
 11
6139.409617965513
 21
-4837.964079228444
 31
0.0
  0
LINE
  5
375
  8
TFAS-0009
  6
CONTINUOUS
 62
     7
 10
6144.477752299225
 20
-4841.617999999784
 30
0.0
 11
6140.524973037163
 21
-4837.665220737722
 31
0.0
  0
LINE
  5
376
  8
TFAS-0009
  6
CONTINUOUS
 62
     7
 10
6144.477752299225
 20
-4841.617999999784
 30
0.0
 11
6140.524973037163
 21
-4837.665220737722
 31
0.0
  0
LINE
  5
377
  8
TFAS-0009
  6
CONTINUOUS
 62
     7
 10
6145.773000000085
 20
-4841.499034138271
 30
0.0
 11
6141.640328108813
 21
-4837.366362246999
 31
0.0
  0
LINE
  5
378
  8
TFAS-0009
  6
CONTINUOUS
 62
     7
 10
6145.773000000085
 20
-4841.499034138271
 30
0.0
 11
6141.640328108813
 21
-4837.366362246999
 31
0.0
  0
LINE
  5
379
  8
TFAS-0009
  6
CONTINUOUS
 62
     7
 10
6145.773000000045
 20
-4840.084820575858
 30
0.0
 11
6142.755683180463
 21
-4837.067503756277
 31
0.0
  0
LINE
  5
37A
  8
TFAS-0009
  6
CONTINUOUS
 62
     7
 10
6145.773000000045
 20
-4840.084820575858
 30
0.0
 11
6142.755683180463
 21
-4837.067503756277
 31
0.0
  0
LINE
  5
37B
  8
TFAS-0009
  6
CONTINUOUS
 62
     7
 10
6145.773000000045
 20
-4838.670607013485
 30
0.0
 11
6143.871038252114
 21
-4836.768645265554
 31
0.0
  0
LINE
  5
37C
  8
TFAS-0009
  6
CONTINUOUS
 62
     7
 10
6145.773000000045
 20
-4838.670607013485
 30
0.0
 11
6143.871038252114
 21
-4836.768645265554
 31
0.0
  0
LINE
  5
37D
  8
TFAS-0009
  6
CONTINUOUS
 62
     7
 10
6145.773000000045
 20
-4837.256393451111
 30
0.0
 11
6144.986393323765
 21
-4836.469786774832
 31
0.0
  0
LINE
  5
37E
  8
TFAS-0009
  6
CONTINUOUS
 62
     7
 10
6145.773000000045
 20
-4837.256393451111
 30
0.0
 11
6144.986393323765
 21
-4836.469786774832
 31
0.0
  0
LINE
  5
37F
  8
TFAS-0009
  6
CONTINUOUS
 62
     7
 10
6130.773000000045
 20
-4854.117999999784
 30
0.0
 11
6130.773000000045
 21
-4841.617999999784
 31
0.0
  0
LINE
  5
380
  8
TFAS-0009
  6
CONTINUOUS
 62
     7
 10
6145.773000000045
 20
-4841.617999999784
 30
0.0
 11
6125.773000000045
 21
-4841.617999999784
 31
0.0
  0
LINE
  5
381
  8
TFAS-0009
  6
CONTINUOUS
 62
     7
 10
6126.092975988375
 20
-4841.617999999784
 30
0.0
 11
6126.025357105707
 21
-4841.550381117117
 31
0.0
  0
LINE
  5
382
  8
TFAS-0009
  6
CONTINUOUS
 62
     7
 10
6126.092975988375
 20
-4841.617999999784
 30
0.0
 11
6126.025357105707
 21
-4841.550381117117
 31
0.0
  0
LINE
  5
383
  8
TFAS-0009
  6
CONTINUOUS
 62
     7
 10
6127.507189550747
 20
-4841.617999999784
 30
0.0
 11
6127.140712177358
 21
-4841.251522626395
 31
0.0
  0
LINE
  5
384
  8
TFAS-0009
  6
CONTINUOUS
 62
     7
 10
6127.507189550747
 20
-4841.617999999784
 30
0.0
 11
6127.140712177358
 21
-4841.251522626395
 31
0.0
  0
LINE
  5
385
  8
TFAS-0009
  6
CONTINUOUS
 62
     7
 10
6145.773000000045
 20
-4841.617999999784
 30
0.0
 11
6130.773000000045
 21
-4841.617999999784
 31
0.0
  0
LINE
  5
386
  8
TFAS-0009
  6
CONTINUOUS
 62
     7
 10
6144.266987845941
 20
-4836.662550891298
 30
0.0
 11
6139.311538737395
 21
-4841.617999999845
 31
0.0
  0
LINE
  5
387
  8
TFAS-0009
  6
CONTINUOUS
 62
     7
 10
6144.266987845941
 20
-4836.662550891298
 30
0.0
 11
6139.311538737395
 21
-4841.617999999845
 31
0.0
  0
LINE
  5
388
  8
TFAS-0009
  6
CONTINUOUS
 62
     7
 10
6145.773000000124
 20
-4836.570752299489
 30
0.0
 11
6140.725752299855
 21
-4841.617999999758
 31
0.0
  0
LINE
  5
389
  8
TFAS-0009
  6
CONTINUOUS
 62
     7
 10
6145.773000000124
 20
-4836.570752299489
 30
0.0
 11
6140.725752299855
 21
-4841.617999999758
 31
0.0
  0
LINE
  5
38A
  8
TFAS-0009
  6
CONTINUOUS
 62
     7
 10
6145.773000000232
 20
-4837.984965861753
 30
0.0
 11
6142.139965862003
 21
-4841.617999999982
 31
0.0
  0
LINE
  5
38B
  8
TFAS-0009
  6
CONTINUOUS
 62
     7
 10
6145.773000000232
 20
-4837.984965861753
 30
0.0
 11
6142.139965862003
 21
-4841.617999999982
 31
0.0
  0
LINE
  5
38C
  8
TFAS-0009
  6
CONTINUOUS
 62
     7
 10
6145.773000000045
 20
-4839.399179424314
 30
0.0
 11
6143.554179424421
 21
-4841.617999999937
 31
0.0
  0
LINE
  5
38D
  8
TFAS-0009
  6
CONTINUOUS
 62
     7
 10
6145.773000000045
 20
-4839.399179424314
 30
0.0
 11
6143.554179424421
 21
-4841.617999999937
 31
0.0
  0
LINE
  5
38E
  8
TFAS-0009
  6
CONTINUOUS
 62
     7
 10
6145.773000000045
 20
-4840.813392986686
 30
0.0
 11
6144.968392987475
 21
-4841.617999999256
 31
0.0
  0
LINE
  5
38F
  8
TFAS-0009
  6
CONTINUOUS
 62
     7
 10
6145.773000000045
 20
-4840.813392986686
 30
0.0
 11
6144.968392987475
 21
-4841.617999999256
 31
0.0
  0
LINE
  5
390
  8
TFAS-0009
  6
CONTINUOUS
 62
     7
 10
6128.812174625603
 20
-4840.803655612652
 30
0.0
 11
6127.997830238446
 21
-4841.617999999808
 31
0.0
  0
LINE
  5
391
  8
TFAS-0009
  6
CONTINUOUS
 62
     7
 10
6128.812174625603
 20
-4840.803655612652
 30
0.0
 11
6127.997830238446
 21
-4841.617999999808
 31
0.0
  0
LINE
  5
392
  8
TFAS-0009
  6
CONTINUOUS
 62
     7
 10
6130.744026277246
 20
-4840.286017523381
 30
0.0
 11
6129.41204380014
 21
-4841.618000000487
 31
0.0
  0
LINE
  5
393
  8
TFAS-0009
  6
CONTINUOUS
 62
     7
 10
6130.744026277246
 20
-4840.286017523381
 30
0.0
 11
6129.41204380014
 21
-4841.618000000487
 31
0.0
  0
LINE
  5
394
  8
TFAS-0009
  6
CONTINUOUS
 62
     7
 10
6132.675877930407
 20
-4839.768379432593
 30
0.0
 11
6130.826257362615
 21
-4841.618000000385
 31
0.0
  0
LINE
  5
395
  8
TFAS-0009
  6
CONTINUOUS
 62
     7
 10
6132.675877930407
 20
-4839.768379432593
 30
0.0
 11
6130.826257362615
 21
-4841.618000000385
 31
0.0
  0
LINE
  5
396
  8
TFAS-0009
  6
CONTINUOUS
 62
     7
 10
6134.607729582291
 20
-4839.250741343083
 30
0.0
 11
6132.240470925463
 21
-4841.617999999909
 31
0.0
  0
LINE
  5
397
  8
TFAS-0009
  6
CONTINUOUS
 62
     7
 10
6134.607729582291
 20
-4839.250741343083
 30
0.0
 11
6132.240470925463
 21
-4841.617999999909
 31
0.0
  0
LINE
  5
398
  8
TFAS-0009
  6
CONTINUOUS
 62
     7
 10
6136.539581235589
 20
-4838.733103252158
 30
0.0
 11
6133.65468448794
 21
-4841.617999999806
 31
0.0
  0
LINE
  5
399
  8
TFAS-0009
  6
CONTINUOUS
 62
     7
 10
6136.539581235589
 20
-4838.733103252158
 30
0.0
 11
6133.65468448794
 21
-4841.617999999806
 31
0.0
  0
LINE
  5
39A
  8
TFAS-0009
  6
CONTINUOUS
 62
     7
 10
6138.471432887106
 20
-4838.215465163014
 30
0.0
 11
6135.068898050279
 21
-4841.617999999842
 31
0.0
  0
LINE
  5
39B
  8
TFAS-0009
  6
CONTINUOUS
 62
     7
 10
6138.471432887106
 20
-4838.215465163014
 30
0.0
 11
6135.068898050279
 21
-4841.617999999842
 31
0.0
  0
LINE
  5
39C
  8
TFAS-0009
  6
CONTINUOUS
 62
     7
 10
6140.403284540495
 20
-4837.697827071997
 30
0.0
 11
6136.483111612584
 21
-4841.617999999909
 31
0.0
  0
LINE
  5
39D
  8
TFAS-0009
  6
CONTINUOUS
 62
     7
 10
6140.403284540495
 20
-4837.697827071997
 30
0.0
 11
6136.483111612584
 21
-4841.617999999909
 31
0.0
  0
LINE
  5
39E
  8
TFAS-0009
  6
CONTINUOUS
 62
     7
 10
6142.335136193843
 20
-4837.180188981023
 30
0.0
 11
6137.897325174843
 21
-4841.618000000023
 31
0.0
  0
LINE
  5
39F
  8
TFAS-0009
  6
CONTINUOUS
 62
     7
 10
6142.335136193843
 20
-4837.180188981023
 30
0.0
 11
6137.897325174843
 21
-4841.618000000023
 31
0.0
  0
LINE
  5
3A0
  8
TFAS-0009
  6
CONTINUOUS
 62
     7
 10
6126.880322972343
 20
-4841.321293703539
 30
0.0
 11
6126.583616676331
 21
-4841.61799999955
 31
0.0
  0
LINE
  5
3A1
  8
TFAS-0009
  6
CONTINUOUS
 62
     7
 10
6126.880322972343
 20
-4841.321293703539
 30
0.0
 11
6126.583616676331
 21
-4841.61799999955
 31
0.0
  0
LINE
  5
3A2
  8
TFAS-0009
  6
CONTINUOUS
 62
     7
 10
6130.773000000045
 20
-4854.117999999784
 30
0.0
 11
6145.773000000045
 21
-4854.117999999784
 31
0.0
  0
LINE
  5
3A3
  8
TFAS-0009
  6
CONTINUOUS
 62
     7
 10
6145.773000000045
 20
-4854.117999999784
 30
0.0
 11
6145.773000000045
 21
-4841.617999999784
 31
0.0
  0
CIRCLE
  5
3A4
  8
TFAS-0009
  6
CONTINUOUS
 62
     7
 10
6132.707022937851
 20
-4843.543022937509
 30
0.0
 40
1.5
  0
LINE
  5
3A5
  8
TFAS-0009
  6
CONTINUOUS
 62
     7
 10
6134.187317245095
 20
-4843.300682755265
 30
0.0
 11
6132.464682755604
 21
-4845.023317244756
 31
0.0
  0
LINE
  5
3A6
  8
TFAS-0009
  6
CONTINUOUS
 62
     7
 10
6133.750121024475
 20
-4842.465086769756
 30
0.0
 11
6131.629086770119
 21
-4844.586121024112
 31
0.0
  0
LINE
  5
3A7
  8
TFAS-0009
  6
CONTINUOUS
 62
     7
 10
6132.88838786938
 20
-4842.054027718706
 30
0.0
 11
6131.218027719053
 21
-4843.724387869032
 31
0.0
  0
LINE
  5
3A8
  8
TFAS-0009
  6
CONTINUOUS
 62
     7
 10
6134.140889913743
 20
-4843.983506189695
 30
0.0
 11
6133.147506190058
 21
-4844.976889913375
 31
0.0
  0
LINE
  5
3A9
  8
TFAS-0009
  6
CONTINUOUS
 62
     7
 10
6134.187317245095
 20
-4843.300682755265
 30
0.0
 11
6132.464682755604
 21
-4845.023317244756
 31
0.0
  0
LINE
  5
3AA
  8
TFAS-0009
  6
CONTINUOUS
 62
     7
 10
6134.024921404233
 20
-4842.826682493054
 30
0.0
 11
6131.990682493421
 21
-4844.86092140387
 31
0.0
  0
LINE
  5
3AB
  8
TFAS-0009
  6
CONTINUOUS
 62
     7
 10
6133.750121024475
 20
-4842.465086769756
 30
0.0
 11
6131.629086770119
 21
-4844.586121024112
 31
0.0
  0
LINE
  5
3AC
  8
TFAS-0009
  6
CONTINUOUS
 62
     7
 10
6133.377567446843
 20
-4842.201244244315
 30
0.0
 11
6131.365244244678
 21
-4844.21356744648
 31
0.0
  0
LINE
  5
3AD
  8
TFAS-0009
  6
CONTINUOUS
 62
     7
 10
6132.88838786938
 20
-4842.054027718706
 30
0.0
 11
6131.218027719053
 21
-4843.724387869032
 31
0.0
  0
LINE
  5
3AE
  8
TFAS-0009
  6
CONTINUOUS
 62
     7
 10
6132.159498079905
 20
-4842.146521405124
 30
0.0
 11
6131.310521405491
 21
-4842.995498079541
 31
0.0
  0
CIRCLE
  5
3AF
  8
TFAS-0009
  6
CONTINUOUS
 62
     7
 10
6143.947022937609
 20
-4843.463022937434
 30
0.0
 40
1.5
  0
LINE
  5
3B0
  8
TFAS-0009
  6
CONTINUOUS
 62
     7
 10
6145.427317244853
 20
-4843.220682755191
 30
0.0
 11
6143.704682755362
 21
-4844.943317244682
 31
0.0
  0
LINE
  5
3B1
  8
TFAS-0009
  6
CONTINUOUS
 62
     7
 10
6144.990121024233
 20
-4842.385086769681
 30
0.0
 11
6142.869086769877
 21
-4844.506121024037
 31
0.0
  0
LINE
  5
3B2
  8
TFAS-0009
  6
CONTINUOUS
 62
     7
 10
6144.128387869137
 20
-4841.974027718631
 30
0.0
 11
6142.458027718811
 21
-4843.644387868958
 31
0.0
  0
LINE
  5
3B3
  8
TFAS-0009
  6
CONTINUOUS
 62
     7
 10
6145.380889913501
 20
-4843.90350618962
 30
0.0
 11
6144.387506189816
 21
-4844.896889913301
 31
0.0
  0
LINE
  5
3B4
  8
TFAS-0009
  6
CONTINUOUS
 62
     7
 10
6145.427317244853
 20
-4843.220682755191
 30
0.0
 11
6143.704682755362
 21
-4844.943317244682
 31
0.0
  0
LINE
  5
3B5
  8
TFAS-0009
  6
CONTINUOUS
 62
     7
 10
6145.264921403991
 20
-4842.74668249298
 30
0.0
 11
6143.230682493179
 21
-4844.780921403795
 31
0.0
  0
LINE
  5
3B6
  8
TFAS-0009
  6
CONTINUOUS
 62
     7
 10
6144.990121024233
 20
-4842.385086769681
 30
0.0
 11
6142.869086769877
 21
-4844.506121024037
 31
0.0
  0
LINE
  5
3B7
  8
TFAS-0009
  6
CONTINUOUS
 62
     7
 10
6144.617567446601
 20
-4842.12124424424
 30
0.0
 11
6142.605244244436
 21
-4844.133567446405
 31
0.0
  0
LINE
  5
3B8
  8
TFAS-0009
  6
CONTINUOUS
 62
     7
 10
6144.128387869137
 20
-4841.974027718631
 30
0.0
 11
6142.458027718811
 21
-4843.644387868958
 31
0.0
  0
LINE
  5
3B9
  8
TFAS-0009
  6
CONTINUOUS
 62
     7
 10
6143.399498079662
 20
-4842.06652140505
 30
0.0
 11
6142.550521405249
 21
-4842.915498079466
 31
0.0
  0
CIRCLE
  5
3BA
  8
TFAS-0009
  6
CONTINUOUS
 62
     7
 10
6144.143419040731
 20
-4852.259419040649
 30
0.0
 40
1.5
  0
LINE
  5
3BB
  8
TFAS-0009
  6
CONTINUOUS
 62
     7
 10
6145.623713347974
 20
-4852.017078858406
 30
0.0
 11
6143.901078858484
 21
-4853.739713347896
 31
0.0
  0
LINE
  5
3BC
  8
TFAS-0009
  6
CONTINUOUS
 62
     7
 10
6145.186517127355
 20
-4851.181482872896
 30
0.0
 11
6143.065482872998
 21
-4853.302517127252
 31
0.0
  0
LINE
  5
3BD
  8
TFAS-0009
  6
CONTINUOUS
 62
     7
 10
6144.324783972259
 20
-4850.770423821846
 30
0.0
 11
6142.654423821932
 21
-4852.440783972173
 31
0.0
  0
LINE
  5
3BE
  8
TFAS-0009
  6
CONTINUOUS
 62
     7
 10
6145.577286016623
 20
-4852.699902292835
 30
0.0
 11
6144.583902292938
 21
-4853.693286016515
 31
0.0
  0
LINE
  5
3BF
  8
TFAS-0009
  6
CONTINUOUS
 62
     7
 10
6145.623713347974
 20
-4852.017078858406
 30
0.0
 11
6143.901078858484
 21
-4853.739713347896
 31
0.0
  0
LINE
  5
3C0
  8
TFAS-0009
  6
CONTINUOUS
 62
     7
 10
6145.461317507113
 20
-4851.543078596194
 30
0.0
 11
6143.427078596301
 21
-4853.57731750701
 31
0.0
  0
LINE
  5
3C1
  8
TFAS-0009
  6
CONTINUOUS
 62
     7
 10
6145.186517127355
 20
-4851.181482872896
 30
0.0
 11
6143.065482872998
 21
-4853.302517127252
 31
0.0
  0
LINE
  5
3C2
  8
TFAS-0009
  6
CONTINUOUS
 62
     7
 10
6144.813963549723
 20
-4850.917640347455
 30
0.0
 11
6142.801640347558
 21
-4852.92996354962
 31
0.0
  0
LINE
  5
3C3
  8
TFAS-0009
  6
CONTINUOUS
 62
     7
 10
6144.324783972259
 20
-4850.770423821846
 30
0.0
 11
6142.654423821932
 21
-4852.440783972173
 31
0.0
  0
LINE
  5
3C4
  8
TFAS-0009
  6
CONTINUOUS
 62
     7
 10
6143.595894182784
 20
-4850.862917508264
 30
0.0
 11
6142.746917508371
 21
-4851.711894182681
 31
0.0
  0
CIRCLE
  5
3C5
  8
TFAS-0009
  6
CONTINUOUS
 62
     7
 10
6132.86341904047
 20
-4852.299419040686
 30
0.0
 40
1.5
  0
LINE
  5
3C6
  8
TFAS-0009
  6
CONTINUOUS
 62
     7
 10
6134.343713347714
 20
-4852.057078858443
 30
0.0
 11
6132.621078858223
 21
-4853.779713347933
 31
0.0
  0
LINE
  5
3C7
  8
TFAS-0009
  6
CONTINUOUS
 62
     7
 10
6133.906517127094
 20
-4851.221482872933
 30
0.0
 11
6131.785482872738
 21
-4853.342517127289
 31
0.0
  0
LINE
  5
3C8
  8
TFAS-0009
  6
CONTINUOUS
 62
     7
 10
6133.044783971998
 20
-4850.810423821883
 30
0.0
 11
6131.374423821671
 21
-4852.48078397221
 31
0.0
  0
LINE
  5
3C9
  8
TFAS-0009
  6
CONTINUOUS
 62
     7
 10
6134.297286016362
 20
-4852.739902292872
 30
0.0
 11
6133.303902292677
 21
-4853.733286016552
 31
0.0
  0
LINE
  5
3CA
  8
TFAS-0009
  6
CONTINUOUS
 62
     7
 10
6134.343713347714
 20
-4852.057078858443
 30
0.0
 11
6132.621078858223
 21
-4853.779713347933
 31
0.0
  0
LINE
  5
3CB
  8
TFAS-0009
  6
CONTINUOUS
 62
     7
 10
6134.181317506852
 20
-4851.583078596232
 30
0.0
 11
6132.14707859604
 21
-4853.617317507047
 31
0.0
  0
LINE
  5
3CC
  8
TFAS-0009
  6
CONTINUOUS
 62
     7
 10
6133.906517127094
 20
-4851.221482872933
 30
0.0
 11
6131.785482872738
 21
-4853.342517127289
 31
0.0
  0
LINE
  5
3CD
  8
TFAS-0009
  6
CONTINUOUS
 62
     7
 10
6133.533963549462
 20
-4850.957640347492
 30
0.0
 11
6131.521640347297
 21
-4852.969963549657
 31
0.0
  0
LINE
  5
3CE
  8
TFAS-0009
  6
CONTINUOUS
 62
     7
 10
6133.044783971998
 20
-4850.810423821883
 30
0.0
 11
6131.374423821671
 21
-4852.48078397221
 31
0.0
  0
LINE
  5
3CF
  8
TFAS-0009
  6
CONTINUOUS
 62
     7
 10
6132.315894182523
 20
-4850.902917508301
 30
0.0
 11
6131.46691750811
 21
-4851.751894182718
 31
0.0
  0
CIRCLE
  5
3D0
  8
TFAS-0009
  6
CONTINUOUS
 62
     7
 10
6134.223419040805
 20
-4848.019419040425
 30
0.0
 40
1.5
  0
LINE
  5
3D1
  8
TFAS-0009
  6
CONTINUOUS
 62
     7
 10
6135.703713348049
 20
-4847.777078858182
 30
0.0
 11
6133.981078858558
 21
-4849.499713347673
 31
0.0
  0
LINE
  5
3D2
  8
TFAS-0009
  6
CONTINUOUS
 62
     7
 10
6135.266517127429
 20
-4846.941482872672
 30
0.0
 11
6133.145482873073
 21
-4849.062517127029
 31
0.0
  0
LINE
  5
3D3
  8
TFAS-0009
  6
CONTINUOUS
 62
     7
 10
6134.404783972333
 20
-4846.530423821622
 30
0.0
 11
6132.734423822007
 21
-4848.200783971949
 31
0.0
  0
LINE
  5
3D4
  8
TFAS-0009
  6
CONTINUOUS
 62
     7
 10
6135.657286016697
 20
-4848.459902292611
 30
0.0
 11
6134.663902293012
 21
-4849.453286016292
 31
0.0
  0
LINE
  5
3D5
  8
TFAS-0009
  6
CONTINUOUS
 62
     7
 10
6135.703713348049
 20
-4847.777078858182
 30
0.0
 11
6133.981078858558
 21
-4849.499713347673
 31
0.0
  0
LINE
  5
3D6
  8
TFAS-0009
  6
CONTINUOUS
 62
     7
 10
6135.541317507187
 20
-4847.303078595971
 30
0.0
 11
6133.507078596375
 21
-4849.337317506786
 31
0.0
  0
LINE
  5
3D7
  8
TFAS-0009
  6
CONTINUOUS
 62
     7
 10
6135.266517127429
 20
-4846.941482872672
 30
0.0
 11
6133.145482873073
 21
-4849.062517127029
 31
0.0
  0
LINE
  5
3D8
  8
TFAS-0009
  6
CONTINUOUS
 62
     7
 10
6134.893963549797
 20
-4846.677640347231
 30
0.0
 11
6132.881640347632
 21
-4848.689963549396
 31
0.0
  0
LINE
  5
3D9
  8
TFAS-0009
  6
CONTINUOUS
 62
     7
 10
6134.404783972333
 20
-4846.530423821622
 30
0.0
 11
6132.734423822007
 21
-4848.200783971949
 31
0.0
  0
LINE
  5
3DA
  8
TFAS-0009
  6
CONTINUOUS
 62
     7
 10
6133.675894182858
 20
-4846.622917508041
 30
0.0
 11
6132.826917508445
 21
-4847.471894182458
 31
0.0
  0
CIRCLE
  5
3DB
  8
TFAS-0009
  6
CONTINUOUS
 62
     7
 10
6138.343419040451
 20
-4844.419419040332
 30
0.0
 40
1.5
  0
LINE
  5
3DC
  8
TFAS-0009
  6
CONTINUOUS
 62
     7
 10
6139.823713347695
 20
-4844.177078858089
 30
0.0
 11
6138.101078858204
 21
-4845.89971334758
 31
0.0
  0
LINE
  5
3DD
  8
TFAS-0009
  6
CONTINUOUS
 62
     7
 10
6139.386517127075
 20
-4843.341482872579
 30
0.0
 11
6137.265482872719
 21
-4845.462517126935
 31
0.0
  0
LINE
  5
3DE
  8
TFAS-0009
  6
CONTINUOUS
 62
     7
 10
6138.52478397198
 20
-4842.930423821529
 30
0.0
 11
6136.854423821653
 21
-4844.600783971856
 31
0.0
  0
LINE
  5
3DF
  8
TFAS-0009
  6
CONTINUOUS
 62
     7
 10
6139.777286016343
 20
-4844.859902292518
 30
0.0
 11
6138.783902292658
 21
-4845.853286016199
 31
0.0
  0
LINE
  5
3E0
  8
TFAS-0009
  6
CONTINUOUS
 62
     7
 10
6139.823713347695
 20
-4844.177078858089
 30
0.0
 11
6138.101078858204
 21
-4845.89971334758
 31
0.0
  0
LINE
  5
3E1
  8
TFAS-0009
  6
CONTINUOUS
 62
     7
 10
6139.661317506833
 20
-4843.703078595878
 30
0.0
 11
6137.627078596021
 21
-4845.737317506693
 31
0.0
  0
LINE
  5
3E2
  8
TFAS-0009
  6
CONTINUOUS
 62
     7
 10
6139.386517127075
 20
-4843.341482872579
 30
0.0
 11
6137.265482872719
 21
-4845.462517126935
 31
0.0
  0
LINE
  5
3E3
  8
TFAS-0009
  6
CONTINUOUS
 62
     7
 10
6139.013963549443
 20
-4843.077640347138
 30
0.0
 11
6137.001640347278
 21
-4845.089963549303
 31
0.0
  0
LINE
  5
3E4
  8
TFAS-0009
  6
CONTINUOUS
 62
     7
 10
6138.52478397198
 20
-4842.930423821529
 30
0.0
 11
6136.854423821653
 21
-4844.600783971856
 31
0.0
  0
LINE
  5
3E5
  8
TFAS-0009
  6
CONTINUOUS
 62
     7
 10
6137.795894182505
 20
-4843.022917507948
 30
0.0
 11
6136.946917508091
 21
-4843.871894182364
 31
0.0
  0
CIRCLE
  5
3E6
  8
TFAS-0009
  6
CONTINUOUS
 62
     7
 10
6143.183419040768
 20
-4847.939419040351
 30
0.0
 40
1.5
  0
LINE
  5
3E7
  8
TFAS-0009
  6
CONTINUOUS
 62
     7
 10
6144.663713348012
 20
-4847.697078858107
 30
0.0
 11
6142.941078858521
 21
-4849.419713347598
 31
0.0
  0
LINE
  5
3E8
  8
TFAS-0009
  6
CONTINUOUS
 62
     7
 10
6144.226517127392
 20
-4846.861482872598
 30
0.0
 11
6142.105482873036
 21
-4848.982517126954
 31
0.0
  0
LINE
  5
3E9
  8
TFAS-0009
  6
CONTINUOUS
 62
     7
 10
6143.364783972296
 20
-4846.450423821548
 30
0.0
 11
6141.694423821969
 21
-4848.120783971875
 31
0.0
  0
LINE
  5
3EA
  8
TFAS-0009
  6
CONTINUOUS
 62
     7
 10
6144.61728601666
 20
-4848.379902292537
 30
0.0
 11
6143.623902292975
 21
-4849.373286016217
 31
0.0
  0
LINE
  5
3EB
  8
TFAS-0009
  6
CONTINUOUS
 62
     7
 10
6144.663713348012
 20
-4847.697078858107
 30
0.0
 11
6142.941078858521
 21
-4849.419713347598
 31
0.0
  0
LINE
  5
3EC
  8
TFAS-0009
  6
CONTINUOUS
 62
     7
 10
6144.50131750715
 20
-4847.223078595896
 30
0.0
 11
6142.467078596338
 21
-4849.257317506712
 31
0.0
  0
LINE
  5
3ED
  8
TFAS-0009
  6
CONTINUOUS
 62
     7
 10
6144.226517127392
 20
-4846.861482872598
 30
0.0
 11
6142.105482873036
 21
-4848.982517126954
 31
0.0
  0
LINE
  5
3EE
  8
TFAS-0009
  6
CONTINUOUS
 62
     7
 10
6143.85396354976
 20
-4846.597640347157
 30
0.0
 11
6141.841640347595
 21
-4848.609963549322
 31
0.0
  0
LINE
  5
3EF
  8
TFAS-0009
  6
CONTINUOUS
 62
     7
 10
6143.364783972296
 20
-4846.450423821548
 30
0.0
 11
6141.694423821969
 21
-4848.120783971875
 31
0.0
  0
LINE
  5
3F0
  8
TFAS-0009
  6
CONTINUOUS
 62
     7
 10
6142.635894182821
 20
-4846.542917507966
 30
0.0
 11
6141.786917508408
 21
-4847.391894182383
 31
0.0
  0
CIRCLE
  5
3F1
  8
TFAS-0009
  6
CONTINUOUS
 62
     7
 10
6138.903419040507
 20
-4852.419419040332
 30
0.0
 40
1.5
  0
LINE
  5
3F2
  8
TFAS-0009
  6
CONTINUOUS
 62
     7
 10
6140.383713347751
 20
-4852.177078858089
 30
0.0
 11
6138.66107885826
 21
-4853.89971334758
 31
0.0
  0
LINE
  5
3F3
  8
TFAS-0009
  6
CONTINUOUS
 62
     7
 10
6139.946517127131
 20
-4851.341482872579
 30
0.0
 11
6137.825482872775
 21
-4853.462517126935
 31
0.0
  0
LINE
  5
3F4
  8
TFAS-0009
  6
CONTINUOUS
 62
     7
 10
6139.084783972035
 20
-4850.930423821529
 30
0.0
 11
6137.414423821709
 21
-4852.600783971856
 31
0.0
  0
LINE
  5
3F5
  8
TFAS-0009
  6
CONTINUOUS
 62
     7
 10
6140.337286016399
 20
-4852.859902292518
 30
0.0
 11
6139.343902292714
 21
-4853.853286016199
 31
0.0
  0
LINE
  5
3F6
  8
TFAS-0009
  6
CONTINUOUS
 62
     7
 10
6140.383713347751
 20
-4852.177078858089
 30
0.0
 11
6138.66107885826
 21
-4853.89971334758
 31
0.0
  0
LINE
  5
3F7
  8
TFAS-0009
  6
CONTINUOUS
 62
     7
 10
6140.221317506889
 20
-4851.703078595878
 30
0.0
 11
6138.187078596077
 21
-4853.737317506693
 31
0.0
  0
LINE
  5
3F8
  8
TFAS-0009
  6
CONTINUOUS
 62
     7
 10
6139.946517127131
 20
-4851.341482872579
 30
0.0
 11
6137.825482872775
 21
-4853.462517126935
 31
0.0
  0
LINE
  5
3F9
  8
TFAS-0009
  6
CONTINUOUS
 62
     7
 10
6139.573963549499
 20
-4851.077640347138
 30
0.0
 11
6137.561640347334
 21
-4853.089963549303
 31
0.0
  0
LINE
  5
3FA
  8
TFAS-0009
  6
CONTINUOUS
 62
     7
 10
6139.084783972035
 20
-4850.930423821529
 30
0.0
 11
6137.414423821709
 21
-4852.600783971856
 31
0.0
  0
LINE
  5
3FB
  8
TFAS-0009
  6
CONTINUOUS
 62
     7
 10
6138.35589418256
 20
-4851.022917507948
 30
0.0
 11
6137.506917508147
 21
-4851.871894182364
 31
0.0
  0
CIRCLE
  5
3FC
  8
TFAS-0009
  6
CONTINUOUS
 62
     7
 10
6138.663419040284
 20
-4848.539419040444
 30
0.0
 40
1.5
  0
LINE
  5
3FD
  8
TFAS-0009
  6
CONTINUOUS
 62
     7
 10
6140.143713347527
 20
-4848.297078858201
 30
0.0
 11
6138.421078858037
 21
-4850.019713347691
 31
0.0
  0
LINE
  5
3FE
  8
TFAS-0009
  6
CONTINUOUS
 62
     7
 10
6139.706517126908
 20
-4847.461482872691
 30
0.0
 11
6137.585482872551
 21
-4849.582517127047
 31
0.0
  0
LINE
  5
3FF
  8
TFAS-0009
  6
CONTINUOUS
 62
     7
 10
6138.844783971812
 20
-4847.050423821641
 30
0.0
 11
6137.174423821485
 21
-4848.720783971968
 31
0.0
  0
LINE
  5
400
  8
TFAS-0009
  6
CONTINUOUS
 62
     7
 10
6140.097286016176
 20
-4848.97990229263
 30
0.0
 11
6139.103902292491
 21
-4849.97328601631
 31
0.0
  0
LINE
  5
401
  8
TFAS-0009
  6
CONTINUOUS
 62
     7
 10
6140.143713347527
 20
-4848.297078858201
 30
0.0
 11
6138.421078858037
 21
-4850.019713347691
 31
0.0
  0
LINE
  5
402
  8
TFAS-0009
  6
CONTINUOUS
 62
     7
 10
6139.981317506666
 20
-4847.82307859599
 30
0.0
 11
6137.947078595854
 21
-4849.857317506805
 31
0.0
  0
LINE
  5
403
  8
TFAS-0009
  6
CONTINUOUS
 62
     7
 10
6139.706517126908
 20
-4847.461482872691
 30
0.0
 11
6137.585482872551
 21
-4849.582517127047
 31
0.0
  0
LINE
  5
404
  8
TFAS-0009
  6
CONTINUOUS
 62
     7
 10
6139.333963549276
 20
-4847.19764034725
 30
0.0
 11
6137.321640347111
 21
-4849.209963549415
 31
0.0
  0
LINE
  5
405
  8
TFAS-0009
  6
CONTINUOUS
 62
     7
 10
6138.844783971812
 20
-4847.050423821641
 30
0.0
 11
6137.174423821485
 21
-4848.720783971968
 31
0.0
  0
LINE
  5
406
  8
TFAS-0009
  6
CONTINUOUS
 62
     7
 10
6138.115894182337
 20
-4847.142917508059
 30
0.0
 11
6137.266917507924
 21
-4847.991894182476
 31
0.0
  0
LINE
  5
407
  8
TFAS-0009
  6
CONTINUOUS
 62
     7
 10
6213.773000000045
 20
-4841.617999999784
 30
0.0
 11
6193.773000000045
 21
-4836.259016151162
 31
0.0
  0
LINE
  5
408
  8
TFAS-0009
  6
CONTINUOUS
 62
     7
 10
6210.624596886969
 20
-4841.617999999784
 30
0.0
 11
6211.28993275108
 21
-4840.952664135672
 31
0.0
  0
LINE
  5
409
  8
TFAS-0009
  6
CONTINUOUS
 62
     7
 10
6210.624596886969
 20
-4841.617999999784
 30
0.0
 11
6211.28993275108
 21
-4840.952664135672
 31
0.0
  0
LINE
  5
40A
  8
TFAS-0009
  6
CONTINUOUS
 62
     7
 10
6209.210383324596
 20
-4841.617999999784
 30
0.0
 11
6210.174577679431
 21
-4840.653805644949
 31
0.0
  0
LINE
  5
40B
  8
TFAS-0009
  6
CONTINUOUS
 62
     7
 10
6209.210383324596
 20
-4841.617999999784
 30
0.0
 11
6210.174577679431
 21
-4840.653805644949
 31
0.0
  0
LINE
  5
40C
  8
TFAS-0009
  6
CONTINUOUS
 62
     7
 10
6207.796169762222
 20
-4841.617999999784
 30
0.0
 11
6209.05922260778
 21
-4840.354947154226
 31
0.0
  0
LINE
  5
40D
  8
TFAS-0009
  6
CONTINUOUS
 62
     7
 10
6207.796169762222
 20
-4841.617999999784
 30
0.0
 11
6209.05922260778
 21
-4840.354947154226
 31
0.0
  0
LINE
  5
40E
  8
TFAS-0009
  6
CONTINUOUS
 62
     7
 10
6206.38195619985
 20
-4841.617999999784
 30
0.0
 11
6207.94386753613
 21
-4840.056088663504
 31
0.0
  0
LINE
  5
40F
  8
TFAS-0009
  6
CONTINUOUS
 62
     7
 10
6206.38195619985
 20
-4841.617999999784
 30
0.0
 11
6207.94386753613
 21
-4840.056088663504
 31
0.0
  0
LINE
  5
410
  8
TFAS-0009
  6
CONTINUOUS
 62
     7
 10
6204.967742637476
 20
-4841.617999999784
 30
0.0
 11
6206.828512464479
 21
-4839.757230172781
 31
0.0
  0
LINE
  5
411
  8
TFAS-0009
  6
CONTINUOUS
 62
     7
 10
6204.967742637476
 20
-4841.617999999784
 30
0.0
 11
6206.828512464479
 21
-4839.757230172781
 31
0.0
  0
LINE
  5
412
  8
TFAS-0009
  6
CONTINUOUS
 62
     7
 10
6203.553529075103
 20
-4841.617999999784
 30
0.0
 11
6205.713157392829
 21
-4839.458371682059
 31
0.0
  0
LINE
  5
413
  8
TFAS-0009
  6
CONTINUOUS
 62
     7
 10
6203.553529075103
 20
-4841.617999999784
 30
0.0
 11
6205.713157392829
 21
-4839.458371682059
 31
0.0
  0
LINE
  5
414
  8
TFAS-0009
  6
CONTINUOUS
 62
     7
 10
6202.13931551273
 20
-4841.617999999784
 30
0.0
 11
6204.597802321178
 21
-4839.159513191336
 31
0.0
  0
LINE
  5
415
  8
TFAS-0009
  6
CONTINUOUS
 62
     7
 10
6202.13931551273
 20
-4841.617999999784
 30
0.0
 11
6204.597802321178
 21
-4839.159513191336
 31
0.0
  0
LINE
  5
416
  8
TFAS-0009
  6
CONTINUOUS
 62
     7
 10
6200.725101950357
 20
-4841.617999999784
 30
0.0
 11
6203.482447249527
 21
-4838.860654700613
 31
0.0
  0
LINE
  5
417
  8
TFAS-0009
  6
CONTINUOUS
 62
     7
 10
6200.725101950357
 20
-4841.617999999784
 30
0.0
 11
6203.482447249527
 21
-4838.860654700613
 31
0.0
  0
LINE
  5
418
  8
TFAS-0009
  6
CONTINUOUS
 62
     7
 10
6199.310888387984
 20
-4841.617999999784
 30
0.0
 11
6202.367092177878
 21
-4838.56179620989
 31
0.0
  0
LINE
  5
419
  8
TFAS-0009
  6
CONTINUOUS
 62
     7
 10
6199.310888387984
 20
-4841.617999999784
 30
0.0
 11
6202.367092177878
 21
-4838.56179620989
 31
0.0
  0
LINE
  5
41A
  8
TFAS-0009
  6
CONTINUOUS
 62
     7
 10
6197.896674825611
 20
-4841.617999999784
 30
0.0
 11
6201.251737106227
 21
-4838.262937719168
 31
0.0
  0
LINE
  5
41B
  8
TFAS-0009
  6
CONTINUOUS
 62
     7
 10
6197.896674825611
 20
-4841.617999999784
 30
0.0
 11
6201.251737106227
 21
-4838.262937719168
 31
0.0
  0
LINE
  5
41C
  8
TFAS-0009
  6
CONTINUOUS
 62
     7
 10
6196.482461263237
 20
-4841.617999999784
 30
0.0
 11
6200.136382034576
 21
-4837.964079228444
 31
0.0
  0
LINE
  5
41D
  8
TFAS-0009
  6
CONTINUOUS
 62
     7
 10
6196.482461263237
 20
-4841.617999999784
 30
0.0
 11
6200.136382034576
 21
-4837.964079228444
 31
0.0
  0
LINE
  5
41E
  8
TFAS-0009
  6
CONTINUOUS
 62
     7
 10
6195.068247700864
 20
-4841.617999999784
 30
0.0
 11
6199.021026962926
 21
-4837.665220737722
 31
0.0
  0
LINE
  5
41F
  8
TFAS-0009
  6
CONTINUOUS
 62
     7
 10
6195.068247700864
 20
-4841.617999999784
 30
0.0
 11
6199.021026962926
 21
-4837.665220737722
 31
0.0
  0
LINE
  5
420
  8
TFAS-0009
  6
CONTINUOUS
 62
     7
 10
6193.773000000005
 20
-4841.499034138271
 30
0.0
 11
6197.905671891276
 21
-4837.366362246999
 31
0.0
  0
LINE
  5
421
  8
TFAS-0009
  6
CONTINUOUS
 62
     7
 10
6193.773000000005
 20
-4841.499034138271
 30
0.0
 11
6197.905671891276
 21
-4837.366362246999
 31
0.0
  0
LINE
  5
422
  8
TFAS-0009
  6
CONTINUOUS
 62
     7
 10
6193.773000000045
 20
-4840.084820575858
 30
0.0
 11
6196.790316819626
 21
-4837.067503756277
 31
0.0
  0
LINE
  5
423
  8
TFAS-0009
  6
CONTINUOUS
 62
     7
 10
6193.773000000045
 20
-4840.084820575858
 30
0.0
 11
6196.790316819626
 21
-4837.067503756277
 31
0.0
  0
LINE
  5
424
  8
TFAS-0009
  6
CONTINUOUS
 62
     7
 10
6193.773000000045
 20
-4838.670607013485
 30
0.0
 11
6195.674961747975
 21
-4836.768645265554
 31
0.0
  0
LINE
  5
425
  8
TFAS-0009
  6
CONTINUOUS
 62
     7
 10
6193.773000000045
 20
-4838.670607013485
 30
0.0
 11
6195.674961747975
 21
-4836.768645265554
 31
0.0
  0
LINE
  5
426
  8
TFAS-0009
  6
CONTINUOUS
 62
     7
 10
6193.773000000045
 20
-4837.256393451111
 30
0.0
 11
6194.559606676325
 21
-4836.469786774832
 31
0.0
  0
LINE
  5
427
  8
TFAS-0009
  6
CONTINUOUS
 62
     7
 10
6193.773000000045
 20
-4837.256393451111
 30
0.0
 11
6194.559606676325
 21
-4836.469786774832
 31
0.0
  0
LINE
  5
428
  8
TFAS-0009
  6
CONTINUOUS
 62
     7
 10
6208.773000000045
 20
-4854.117999999784
 30
0.0
 11
6208.773000000045
 21
-4841.617999999784
 31
0.0
  0
LINE
  5
429
  8
TFAS-0009
  6
CONTINUOUS
 62
     7
 10
6193.773000000045
 20
-4841.617999999784
 30
0.0
 11
6213.773000000045
 21
-4841.617999999784
 31
0.0
  0
LINE
  5
42A
  8
TFAS-0009
  6
CONTINUOUS
 62
     7
 10
6213.453024011715
 20
-4841.617999999784
 30
0.0
 11
6213.520642894382
 21
-4841.550381117117
 31
0.0
  0
LINE
  5
42B
  8
TFAS-0009
  6
CONTINUOUS
 62
     7
 10
6213.453024011715
 20
-4841.617999999784
 30
0.0
 11
6213.520642894382
 21
-4841.550381117117
 31
0.0
  0
LINE
  5
42C
  8
TFAS-0009
  6
CONTINUOUS
 62
     7
 10
6212.038810449342
 20
-4841.617999999784
 30
0.0
 11
6212.405287822731
 21
-4841.251522626395
 31
0.0
  0
LINE
  5
42D
  8
TFAS-0009
  6
CONTINUOUS
 62
     7
 10
6212.038810449342
 20
-4841.617999999784
 30
0.0
 11
6212.405287822731
 21
-4841.251522626395
 31
0.0
  0
LINE
  5
42E
  8
TFAS-0009
  6
CONTINUOUS
 62
     7
 10
6193.773000000045
 20
-4841.617999999784
 30
0.0
 11
6208.773000000045
 21
-4841.617999999784
 31
0.0
  0
LINE
  5
42F
  8
TFAS-0009
  6
CONTINUOUS
 62
     7
 10
6208.773000000045
 20
-4854.117999999784
 30
0.0
 11
6193.773000000045
 21
-4854.117999999784
 31
0.0
  0
CIRCLE
  5
430
  8
TFAS-0009
  6
CONTINUOUS
 62
     7
 10
6195.707022937851
 20
-4843.543022937509
 30
0.0
 40
1.5
  0
LINE
  5
431
  8
TFAS-0009
  6
CONTINUOUS
 62
     7
 10
6197.187317245095
 20
-4843.300682755265
 30
0.0
 11
6195.464682755604
 21
-4845.023317244756
 31
0.0
  0
LINE
  5
432
  8
TFAS-0009
  6
CONTINUOUS
 62
     7
 10
6196.750121024475
 20
-4842.465086769756
 30
0.0
 11
6194.629086770119
 21
-4844.586121024112
 31
0.0
  0
LINE
  5
433
  8
TFAS-0009
  6
CONTINUOUS
 62
     7
 10
6195.88838786938
 20
-4842.054027718706
 30
0.0
 11
6194.218027719053
 21
-4843.724387869032
 31
0.0
  0
LINE
  5
434
  8
TFAS-0009
  6
CONTINUOUS
 62
     7
 10
6197.140889913743
 20
-4843.983506189695
 30
0.0
 11
6196.147506190058
 21
-4844.976889913375
 31
0.0
  0
LINE
  5
435
  8
TFAS-0009
  6
CONTINUOUS
 62
     7
 10
6197.187317245095
 20
-4843.300682755265
 30
0.0
 11
6195.464682755604
 21
-4845.023317244756
 31
0.0
  0
LINE
  5
436
  8
TFAS-0009
  6
CONTINUOUS
 62
     7
 10
6197.024921404233
 20
-4842.826682493054
 30
0.0
 11
6194.990682493421
 21
-4844.86092140387
 31
0.0
  0
LINE
  5
437
  8
TFAS-0009
  6
CONTINUOUS
 62
     7
 10
6196.750121024475
 20
-4842.465086769756
 30
0.0
 11
6194.629086770119
 21
-4844.586121024112
 31
0.0
  0
LINE
  5
438
  8
TFAS-0009
  6
CONTINUOUS
 62
     7
 10
6196.377567446843
 20
-4842.201244244315
 30
0.0
 11
6194.365244244678
 21
-4844.21356744648
 31
0.0
  0
LINE
  5
439
  8
TFAS-0009
  6
CONTINUOUS
 62
     7
 10
6195.88838786938
 20
-4842.054027718706
 30
0.0
 11
6194.218027719053
 21
-4843.724387869032
 31
0.0
  0
LINE
  5
43A
  8
TFAS-0009
  6
CONTINUOUS
 62
     7
 10
6195.159498079905
 20
-4842.146521405124
 30
0.0
 11
6194.310521405491
 21
-4842.995498079541
 31
0.0
  0
CIRCLE
  5
43B
  8
TFAS-0009
  6
CONTINUOUS
 62
     7
 10
6206.947022937609
 20
-4843.463022937434
 30
0.0
 40
1.5
  0
LINE
  5
43C
  8
TFAS-0009
  6
CONTINUOUS
 62
     7
 10
6208.427317244853
 20
-4843.220682755191
 30
0.0
 11
6206.704682755362
 21
-4844.943317244682
 31
0.0
  0
LINE
  5
43D
  8
TFAS-0009
  6
CONTINUOUS
 62
     7
 10
6207.990121024233
 20
-4842.385086769681
 30
0.0
 11
6205.869086769877
 21
-4844.506121024037
 31
0.0
  0
LINE
  5
43E
  8
TFAS-0009
  6
CONTINUOUS
 62
     7
 10
6207.128387869137
 20
-4841.974027718631
 30
0.0
 11
6205.458027718811
 21
-4843.644387868958
 31
0.0
  0
LINE
  5
43F
  8
TFAS-0009
  6
CONTINUOUS
 62
     7
 10
6208.380889913501
 20
-4843.90350618962
 30
0.0
 11
6207.387506189816
 21
-4844.896889913301
 31
0.0
  0
LINE
  5
440
  8
TFAS-0009
  6
CONTINUOUS
 62
     7
 10
6208.427317244853
 20
-4843.220682755191
 30
0.0
 11
6206.704682755362
 21
-4844.943317244682
 31
0.0
  0
LINE
  5
441
  8
TFAS-0009
  6
CONTINUOUS
 62
     7
 10
6208.264921403991
 20
-4842.74668249298
 30
0.0
 11
6206.230682493179
 21
-4844.780921403795
 31
0.0
  0
LINE
  5
442
  8
TFAS-0009
  6
CONTINUOUS
 62
     7
 10
6207.990121024233
 20
-4842.385086769681
 30
0.0
 11
6205.869086769877
 21
-4844.506121024037
 31
0.0
  0
LINE
  5
443
  8
TFAS-0009
  6
CONTINUOUS
 62
     7
 10
6207.617567446601
 20
-4842.12124424424
 30
0.0
 11
6205.605244244436
 21
-4844.133567446405
 31
0.0
  0
LINE
  5
444
  8
TFAS-0009
  6
CONTINUOUS
 62
     7
 10
6207.128387869137
 20
-4841.974027718631
 30
0.0
 11
6205.458027718811
 21
-4843.644387868958
 31
0.0
  0
LINE
  5
445
  8
TFAS-0009
  6
CONTINUOUS
 62
     7
 10
6206.399498079662
 20
-4842.06652140505
 30
0.0
 11
6205.550521405249
 21
-4842.915498079466
 31
0.0
  0
CIRCLE
  5
446
  8
TFAS-0009
  6
CONTINUOUS
 62
     7
 10
6207.143419040731
 20
-4852.259419040649
 30
0.0
 40
1.5
  0
LINE
  5
447
  8
TFAS-0009
  6
CONTINUOUS
 62
     7
 10
6208.623713347974
 20
-4852.017078858406
 30
0.0
 11
6206.901078858484
 21
-4853.739713347896
 31
0.0
  0
LINE
  5
448
  8
TFAS-0009
  6
CONTINUOUS
 62
     7
 10
6208.186517127355
 20
-4851.181482872896
 30
0.0
 11
6206.065482872998
 21
-4853.302517127252
 31
0.0
  0
LINE
  5
449
  8
TFAS-0009
  6
CONTINUOUS
 62
     7
 10
6207.324783972259
 20
-4850.770423821846
 30
0.0
 11
6205.654423821932
 21
-4852.440783972173
 31
0.0
  0
LINE
  5
44A
  8
TFAS-0009
  6
CONTINUOUS
 62
     7
 10
6208.577286016623
 20
-4852.699902292835
 30
0.0
 11
6207.583902292938
 21
-4853.693286016515
 31
0.0
  0
LINE
  5
44B
  8
TFAS-0009
  6
CONTINUOUS
 62
     7
 10
6208.623713347974
 20
-4852.017078858406
 30
0.0
 11
6206.901078858484
 21
-4853.739713347896
 31
0.0
  0
LINE
  5
44C
  8
TFAS-0009
  6
CONTINUOUS
 62
     7
 10
6208.461317507113
 20
-4851.543078596194
 30
0.0
 11
6206.427078596301
 21
-4853.57731750701
 31
0.0
  0
LINE
  5
44D
  8
TFAS-0009
  6
CONTINUOUS
 62
     7
 10
6208.186517127355
 20
-4851.181482872896
 30
0.0
 11
6206.065482872998
 21
-4853.302517127252
 31
0.0
  0
LINE
  5
44E
  8
TFAS-0009
  6
CONTINUOUS
 62
     7
 10
6207.813963549723
 20
-4850.917640347455
 30
0.0
 11
6205.801640347558
 21
-4852.92996354962
 31
0.0
  0
LINE
  5
44F
  8
TFAS-0009
  6
CONTINUOUS
 62
     7
 10
6207.324783972259
 20
-4850.770423821846
 30
0.0
 11
6205.654423821932
 21
-4852.440783972173
 31
0.0
  0
LINE
  5
450
  8
TFAS-0009
  6
CONTINUOUS
 62
     7
 10
6206.595894182784
 20
-4850.862917508264
 30
0.0
 11
6205.746917508371
 21
-4851.711894182681
 31
0.0
  0
CIRCLE
  5
451
  8
TFAS-0009
  6
CONTINUOUS
 62
     7
 10
6195.86341904047
 20
-4852.299419040686
 30
0.0
 40
1.5
  0
LINE
  5
452
  8
TFAS-0009
  6
CONTINUOUS
 62
     7
 10
6197.343713347714
 20
-4852.057078858443
 30
0.0
 11
6195.621078858223
 21
-4853.779713347933
 31
0.0
  0
LINE
  5
453
  8
TFAS-0009
  6
CONTINUOUS
 62
     7
 10
6196.906517127094
 20
-4851.221482872933
 30
0.0
 11
6194.785482872738
 21
-4853.342517127289
 31
0.0
  0
LINE
  5
454
  8
TFAS-0009
  6
CONTINUOUS
 62
     7
 10
6196.044783971998
 20
-4850.810423821883
 30
0.0
 11
6194.374423821671
 21
-4852.48078397221
 31
0.0
  0
LINE
  5
455
  8
TFAS-0009
  6
CONTINUOUS
 62
     7
 10
6197.297286016362
 20
-4852.739902292872
 30
0.0
 11
6196.303902292677
 21
-4853.733286016552
 31
0.0
  0
LINE
  5
456
  8
TFAS-0009
  6
CONTINUOUS
 62
     7
 10
6197.343713347714
 20
-4852.057078858443
 30
0.0
 11
6195.621078858223
 21
-4853.779713347933
 31
0.0
  0
LINE
  5
457
  8
TFAS-0009
  6
CONTINUOUS
 62
     7
 10
6197.181317506852
 20
-4851.583078596232
 30
0.0
 11
6195.14707859604
 21
-4853.617317507047
 31
0.0
  0
LINE
  5
458
  8
TFAS-0009
  6
CONTINUOUS
 62
     7
 10
6196.906517127094
 20
-4851.221482872933
 30
0.0
 11
6194.785482872738
 21
-4853.342517127289
 31
0.0
  0
LINE
  5
459
  8
TFAS-0009
  6
CONTINUOUS
 62
     7
 10
6196.533963549462
 20
-4850.957640347492
 30
0.0
 11
6194.521640347297
 21
-4852.969963549657
 31
0.0
  0
LINE
  5
45A
  8
TFAS-0009
  6
CONTINUOUS
 62
     7
 10
6196.044783971998
 20
-4850.810423821883
 30
0.0
 11
6194.374423821671
 21
-4852.48078397221
 31
0.0
  0
LINE
  5
45B
  8
TFAS-0009
  6
CONTINUOUS
 62
     7
 10
6195.315894182523
 20
-4850.902917508301
 30
0.0
 11
6194.46691750811
 21
-4851.751894182718
 31
0.0
  0
CIRCLE
  5
45C
  8
TFAS-0009
  6
CONTINUOUS
 62
     7
 10
6197.223419040805
 20
-4848.019419040425
 30
0.0
 40
1.5
  0
LINE
  5
45D
  8
TFAS-0009
  6
CONTINUOUS
 62
     7
 10
6198.703713348049
 20
-4847.777078858182
 30
0.0
 11
6196.981078858558
 21
-4849.499713347673
 31
0.0
  0
LINE
  5
45E
  8
TFAS-0009
  6
CONTINUOUS
 62
     7
 10
6198.266517127429
 20
-4846.941482872672
 30
0.0
 11
6196.145482873073
 21
-4849.062517127029
 31
0.0
  0
LINE
  5
45F
  8
TFAS-0009
  6
CONTINUOUS
 62
     7
 10
6197.404783972333
 20
-4846.530423821622
 30
0.0
 11
6195.734423822007
 21
-4848.200783971949
 31
0.0
  0
LINE
  5
460
  8
TFAS-0009
  6
CONTINUOUS
 62
     7
 10
6198.657286016697
 20
-4848.459902292611
 30
0.0
 11
6197.663902293012
 21
-4849.453286016292
 31
0.0
  0
LINE
  5
461
  8
TFAS-0009
  6
CONTINUOUS
 62
     7
 10
6198.703713348049
 20
-4847.777078858182
 30
0.0
 11
6196.981078858558
 21
-4849.499713347673
 31
0.0
  0
LINE
  5
462
  8
TFAS-0009
  6
CONTINUOUS
 62
     7
 10
6198.541317507187
 20
-4847.303078595971
 30
0.0
 11
6196.507078596375
 21
-4849.337317506786
 31
0.0
  0
LINE
  5
463
  8
TFAS-0009
  6
CONTINUOUS
 62
     7
 10
6198.266517127429
 20
-4846.941482872672
 30
0.0
 11
6196.145482873073
 21
-4849.062517127029
 31
0.0
  0
LINE
  5
464
  8
TFAS-0009
  6
CONTINUOUS
 62
     7
 10
6197.893963549797
 20
-4846.677640347231
 30
0.0
 11
6195.881640347632
 21
-4848.689963549396
 31
0.0
  0
LINE
  5
465
  8
TFAS-0009
  6
CONTINUOUS
 62
     7
 10
6197.404783972333
 20
-4846.530423821622
 30
0.0
 11
6195.734423822007
 21
-4848.200783971949
 31
0.0
  0
LINE
  5
466
  8
TFAS-0009
  6
CONTINUOUS
 62
     7
 10
6196.675894182858
 20
-4846.622917508041
 30
0.0
 11
6195.826917508445
 21
-4847.471894182458
 31
0.0
  0
CIRCLE
  5
467
  8
TFAS-0009
  6
CONTINUOUS
 62
     7
 10
6201.343419040451
 20
-4844.419419040332
 30
0.0
 40
1.5
  0
LINE
  5
468
  8
TFAS-0009
  6
CONTINUOUS
 62
     7
 10
6202.823713347695
 20
-4844.177078858089
 30
0.0
 11
6201.101078858204
 21
-4845.89971334758
 31
0.0
  0
LINE
  5
469
  8
TFAS-0009
  6
CONTINUOUS
 62
     7
 10
6202.386517127075
 20
-4843.341482872579
 30
0.0
 11
6200.265482872719
 21
-4845.462517126935
 31
0.0
  0
LINE
  5
46A
  8
TFAS-0009
  6
CONTINUOUS
 62
     7
 10
6201.52478397198
 20
-4842.930423821529
 30
0.0
 11
6199.854423821653
 21
-4844.600783971856
 31
0.0
  0
LINE
  5
46B
  8
TFAS-0009
  6
CONTINUOUS
 62
     7
 10
6202.777286016343
 20
-4844.859902292518
 30
0.0
 11
6201.783902292658
 21
-4845.853286016199
 31
0.0
  0
LINE
  5
46C
  8
TFAS-0009
  6
CONTINUOUS
 62
     7
 10
6202.823713347695
 20
-4844.177078858089
 30
0.0
 11
6201.101078858204
 21
-4845.89971334758
 31
0.0
  0
LINE
  5
46D
  8
TFAS-0009
  6
CONTINUOUS
 62
     7
 10
6202.661317506833
 20
-4843.703078595878
 30
0.0
 11
6200.627078596021
 21
-4845.737317506693
 31
0.0
  0
LINE
  5
46E
  8
TFAS-0009
  6
CONTINUOUS
 62
     7
 10
6202.386517127075
 20
-4843.341482872579
 30
0.0
 11
6200.265482872719
 21
-4845.462517126935
 31
0.0
  0
LINE
  5
46F
  8
TFAS-0009
  6
CONTINUOUS
 62
     7
 10
6202.013963549443
 20
-4843.077640347138
 30
0.0
 11
6200.001640347278
 21
-4845.089963549303
 31
0.0
  0
LINE
  5
470
  8
TFAS-0009
  6
CONTINUOUS
 62
     7
 10
6201.52478397198
 20
-4842.930423821529
 30
0.0
 11
6199.854423821653
 21
-4844.600783971856
 31
0.0
  0
LINE
  5
471
  8
TFAS-0009
  6
CONTINUOUS
 62
     7
 10
6200.795894182505
 20
-4843.022917507948
 30
0.0
 11
6199.946917508091
 21
-4843.871894182364
 31
0.0
  0
CIRCLE
  5
472
  8
TFAS-0009
  6
CONTINUOUS
 62
     7
 10
6206.183419040768
 20
-4847.939419040351
 30
0.0
 40
1.5
  0
LINE
  5
473
  8
TFAS-0009
  6
CONTINUOUS
 62
     7
 10
6207.663713348012
 20
-4847.697078858107
 30
0.0
 11
6205.941078858521
 21
-4849.419713347598
 31
0.0
  0
LINE
  5
474
  8
TFAS-0009
  6
CONTINUOUS
 62
     7
 10
6207.226517127392
 20
-4846.861482872598
 30
0.0
 11
6205.105482873036
 21
-4848.982517126954
 31
0.0
  0
LINE
  5
475
  8
TFAS-0009
  6
CONTINUOUS
 62
     7
 10
6206.364783972296
 20
-4846.450423821548
 30
0.0
 11
6204.694423821969
 21
-4848.120783971875
 31
0.0
  0
LINE
  5
476
  8
TFAS-0009
  6
CONTINUOUS
 62
     7
 10
6207.61728601666
 20
-4848.379902292537
 30
0.0
 11
6206.623902292975
 21
-4849.373286016217
 31
0.0
  0
LINE
  5
477
  8
TFAS-0009
  6
CONTINUOUS
 62
     7
 10
6207.663713348012
 20
-4847.697078858107
 30
0.0
 11
6205.941078858521
 21
-4849.419713347598
 31
0.0
  0
LINE
  5
478
  8
TFAS-0009
  6
CONTINUOUS
 62
     7
 10
6207.50131750715
 20
-4847.223078595896
 30
0.0
 11
6205.467078596338
 21
-4849.257317506712
 31
0.0
  0
LINE
  5
479
  8
TFAS-0009
  6
CONTINUOUS
 62
     7
 10
6207.226517127392
 20
-4846.861482872598
 30
0.0
 11
6205.105482873036
 21
-4848.982517126954
 31
0.0
  0
LINE
  5
47A
  8
TFAS-0009
  6
CONTINUOUS
 62
     7
 10
6206.85396354976
 20
-4846.597640347157
 30
0.0
 11
6204.841640347595
 21
-4848.609963549322
 31
0.0
  0
LINE
  5
47B
  8
TFAS-0009
  6
CONTINUOUS
 62
     7
 10
6206.364783972296
 20
-4846.450423821548
 30
0.0
 11
6204.694423821969
 21
-4848.120783971875
 31
0.0
  0
LINE
  5
47C
  8
TFAS-0009
  6
CONTINUOUS
 62
     7
 10
6205.635894182821
 20
-4846.542917507966
 30
0.0
 11
6204.786917508408
 21
-4847.391894182383
 31
0.0
  0
CIRCLE
  5
47D
  8
TFAS-0009
  6
CONTINUOUS
 62
     7
 10
6201.903419040507
 20
-4852.419419040332
 30
0.0
 40
1.5
  0
LINE
  5
47E
  8
TFAS-0009
  6
CONTINUOUS
 62
     7
 10
6203.383713347751
 20
-4852.177078858089
 30
0.0
 11
6201.66107885826
 21
-4853.89971334758
 31
0.0
  0
LINE
  5
47F
  8
TFAS-0009
  6
CONTINUOUS
 62
     7
 10
6202.946517127131
 20
-4851.341482872579
 30
0.0
 11
6200.825482872775
 21
-4853.462517126935
 31
0.0
  0
LINE
  5
480
  8
TFAS-0009
  6
CONTINUOUS
 62
     7
 10
6202.084783972035
 20
-4850.930423821529
 30
0.0
 11
6200.414423821709
 21
-4852.600783971856
 31
0.0
  0
LINE
  5
481
  8
TFAS-0009
  6
CONTINUOUS
 62
     7
 10
6203.337286016399
 20
-4852.859902292518
 30
0.0
 11
6202.343902292714
 21
-4853.853286016199
 31
0.0
  0
LINE
  5
482
  8
TFAS-0009
  6
CONTINUOUS
 62
     7
 10
6203.383713347751
 20
-4852.177078858089
 30
0.0
 11
6201.66107885826
 21
-4853.89971334758
 31
0.0
  0
LINE
  5
483
  8
TFAS-0009
  6
CONTINUOUS
 62
     7
 10
6203.221317506889
 20
-4851.703078595878
 30
0.0
 11
6201.187078596077
 21
-4853.737317506693
 31
0.0
  0
LINE
  5
484
  8
TFAS-0009
  6
CONTINUOUS
 62
     7
 10
6202.946517127131
 20
-4851.341482872579
 30
0.0
 11
6200.825482872775
 21
-4853.462517126935
 31
0.0
  0
LINE
  5
485
  8
TFAS-0009
  6
CONTINUOUS
 62
     7
 10
6202.573963549499
 20
-4851.077640347138
 30
0.0
 11
6200.561640347334
 21
-4853.089963549303
 31
0.0
  0
LINE
  5
486
  8
TFAS-0009
  6
CONTINUOUS
 62
     7
 10
6202.084783972035
 20
-4850.930423821529
 30
0.0
 11
6200.414423821709
 21
-4852.600783971856
 31
0.0
  0
LINE
  5
487
  8
TFAS-0009
  6
CONTINUOUS
 62
     7
 10
6201.35589418256
 20
-4851.022917507948
 30
0.0
 11
6200.506917508147
 21
-4851.871894182364
 31
0.0
  0
CIRCLE
  5
488
  8
TFAS-0009
  6
CONTINUOUS
 62
     7
 10
6201.663419040284
 20
-4848.539419040444
 30
0.0
 40
1.5
  0
LINE
  5
489
  8
TFAS-0009
  6
CONTINUOUS
 62
     7
 10
6203.143713347527
 20
-4848.297078858201
 30
0.0
 11
6201.421078858037
 21
-4850.019713347691
 31
0.0
  0
LINE
  5
48A
  8
TFAS-0009
  6
CONTINUOUS
 62
     7
 10
6202.706517126908
 20
-4847.461482872691
 30
0.0
 11
6200.585482872551
 21
-4849.582517127047
 31
0.0
  0
LINE
  5
48B
  8
TFAS-0009
  6
CONTINUOUS
 62
     7
 10
6201.844783971812
 20
-4847.050423821641
 30
0.0
 11
6200.174423821485
 21
-4848.720783971968
 31
0.0
  0
LINE
  5
48C
  8
TFAS-0009
  6
CONTINUOUS
 62
     7
 10
6203.097286016176
 20
-4848.97990229263
 30
0.0
 11
6202.103902292491
 21
-4849.97328601631
 31
0.0
  0
LINE
  5
48D
  8
TFAS-0009
  6
CONTINUOUS
 62
     7
 10
6203.143713347527
 20
-4848.297078858201
 30
0.0
 11
6201.421078858037
 21
-4850.019713347691
 31
0.0
  0
LINE
  5
48E
  8
TFAS-0009
  6
CONTINUOUS
 62
     7
 10
6202.981317506666
 20
-4847.82307859599
 30
0.0
 11
6200.947078595854
 21
-4849.857317506805
 31
0.0
  0
LINE
  5
48F
  8
TFAS-0009
  6
CONTINUOUS
 62
     7
 10
6202.706517126908
 20
-4847.461482872691
 30
0.0
 11
6200.585482872551
 21
-4849.582517127047
 31
0.0
  0
LINE
  5
490
  8
TFAS-0009
  6
CONTINUOUS
 62
     7
 10
6202.333963549276
 20
-4847.19764034725
 30
0.0
 11
6200.321640347111
 21
-4849.209963549415
 31
0.0
  0
LINE
  5
491
  8
TFAS-0009
  6
CONTINUOUS
 62
     7
 10
6201.844783971812
 20
-4847.050423821641
 30
0.0
 11
6200.174423821485
 21
-4848.720783971968
 31
0.0
  0
LINE
  5
492
  8
TFAS-0009
  6
CONTINUOUS
 62
     7
 10
6201.115894182337
 20
-4847.142917508059
 30
0.0
 11
6200.266917507924
 21
-4847.991894182476
 31
0.0
  0
LINE
  5
493
  8
TFAS-0009
  6
CONTINUOUS
 62
     7
 10
6195.279012154148
 20
-4836.662550891298
 30
0.0
 11
6200.234461262694
 21
-4841.617999999845
 31
0.0
  0
LINE
  5
494
  8
TFAS-0009
  6
CONTINUOUS
 62
     7
 10
6195.279012154148
 20
-4836.662550891298
 30
0.0
 11
6200.234461262694
 21
-4841.617999999845
 31
0.0
  0
LINE
  5
495
  8
TFAS-0009
  6
CONTINUOUS
 62
     7
 10
6193.772999999966
 20
-4836.570752299489
 30
0.0
 11
6198.820247700234
 21
-4841.617999999758
 31
0.0
  0
LINE
  5
496
  8
TFAS-0009
  6
CONTINUOUS
 62
     7
 10
6193.772999999966
 20
-4836.570752299489
 30
0.0
 11
6198.820247700234
 21
-4841.617999999758
 31
0.0
  0
LINE
  5
497
  8
TFAS-0009
  6
CONTINUOUS
 62
     7
 10
6193.772999999857
 20
-4837.984965861753
 30
0.0
 11
6197.406034138086
 21
-4841.617999999982
 31
0.0
  0
LINE
  5
498
  8
TFAS-0009
  6
CONTINUOUS
 62
     7
 10
6193.772999999857
 20
-4837.984965861753
 30
0.0
 11
6197.406034138086
 21
-4841.617999999982
 31
0.0
  0
LINE
  5
499
  8
TFAS-0009
  6
CONTINUOUS
 62
     7
 10
6193.773000000045
 20
-4839.399179424314
 30
0.0
 11
6195.991820575668
 21
-4841.617999999937
 31
0.0
  0
LINE
  5
49A
  8
TFAS-0009
  6
CONTINUOUS
 62
     7
 10
6193.773000000045
 20
-4839.399179424314
 30
0.0
 11
6195.991820575668
 21
-4841.617999999937
 31
0.0
  0
LINE
  5
49B
  8
TFAS-0009
  6
CONTINUOUS
 62
     7
 10
6193.773000000045
 20
-4840.813392986686
 30
0.0
 11
6194.577607012614
 21
-4841.617999999256
 31
0.0
  0
LINE
  5
49C
  8
TFAS-0009
  6
CONTINUOUS
 62
     7
 10
6193.773000000045
 20
-4840.813392986686
 30
0.0
 11
6194.577607012614
 21
-4841.617999999256
 31
0.0
  0
LINE
  5
49D
  8
TFAS-0009
  6
CONTINUOUS
 62
     7
 10
6210.733825374487
 20
-4840.803655612652
 30
0.0
 11
6211.548169761643
 21
-4841.617999999808
 31
0.0
  0
LINE
  5
49E
  8
TFAS-0009
  6
CONTINUOUS
 62
     7
 10
6210.733825374487
 20
-4840.803655612652
 30
0.0
 11
6211.548169761643
 21
-4841.617999999808
 31
0.0
  0
LINE
  5
49F
  8
TFAS-0009
  6
CONTINUOUS
 62
     7
 10
6208.801973722843
 20
-4840.286017523381
 30
0.0
 11
6210.133956199949
 21
-4841.618000000487
 31
0.0
  0
LINE
  5
4A0
  8
TFAS-0009
  6
CONTINUOUS
 62
     7
 10
6208.801973722843
 20
-4840.286017523381
 30
0.0
 11
6210.133956199949
 21
-4841.618000000487
 31
0.0
  0
LINE
  5
4A1
  8
TFAS-0009
  6
CONTINUOUS
 62
     7
 10
6206.870122069682
 20
-4839.768379432593
 30
0.0
 11
6208.719742637474
 21
-4841.618000000385
 31
0.0
  0
LINE
  5
4A2
  8
TFAS-0009
  6
CONTINUOUS
 62
     7
 10
6206.870122069682
 20
-4839.768379432593
 30
0.0
 11
6208.719742637474
 21
-4841.618000000385
 31
0.0
  0
LINE
  5
4A3
  8
TFAS-0009
  6
CONTINUOUS
 62
     7
 10
6204.938270417799
 20
-4839.250741343083
 30
0.0
 11
6207.305529074626
 21
-4841.617999999909
 31
0.0
  0
LINE
  5
4A4
  8
TFAS-0009
  6
CONTINUOUS
 62
     7
 10
6204.938270417799
 20
-4839.250741343083
 30
0.0
 11
6207.305529074626
 21
-4841.617999999909
 31
0.0
  0
LINE
  5
4A5
  8
TFAS-0009
  6
CONTINUOUS
 62
     7
 10
6203.0064187645
 20
-4838.733103252158
 30
0.0
 11
6205.891315512149
 21
-4841.617999999806
 31
0.0
  0
LINE
  5
4A6
  8
TFAS-0009
  6
CONTINUOUS
 62
     7
 10
6203.0064187645
 20
-4838.733103252158
 30
0.0
 11
6205.891315512149
 21
-4841.617999999806
 31
0.0
  0
LINE
  5
4A7
  8
TFAS-0009
  6
CONTINUOUS
 62
     7
 10
6201.074567112983
 20
-4838.215465163014
 30
0.0
 11
6204.47710194981
 21
-4841.617999999842
 31
0.0
  0
LINE
  5
4A8
  8
TFAS-0009
  6
CONTINUOUS
 62
     7
 10
6201.074567112983
 20
-4838.215465163014
 30
0.0
 11
6204.47710194981
 21
-4841.617999999842
 31
0.0
  0
LINE
  5
4A9
  8
TFAS-0009
  6
CONTINUOUS
 62
     7
 10
6199.142715459594
 20
-4837.697827071997
 30
0.0
 11
6203.062888387505
 21
-4841.617999999909
 31
0.0
  0
LINE
  5
4AA
  8
TFAS-0009
  6
CONTINUOUS
 62
     7
 10
6199.142715459594
 20
-4837.697827071997
 30
0.0
 11
6203.062888387505
 21
-4841.617999999909
 31
0.0
  0
LINE
  5
4AB
  8
TFAS-0009
  6
CONTINUOUS
 62
     7
 10
6197.210863806246
 20
-4837.180188981023
 30
0.0
 11
6201.648674825246
 21
-4841.618000000023
 31
0.0
  0
LINE
  5
4AC
  8
TFAS-0009
  6
CONTINUOUS
 62
     7
 10
6197.210863806246
 20
-4837.180188981023
 30
0.0
 11
6201.648674825246
 21
-4841.618000000023
 31
0.0
  0
LINE
  5
4AD
  8
TFAS-0009
  6
CONTINUOUS
 62
     7
 10
6212.665677027746
 20
-4841.321293703539
 30
0.0
 11
6212.962383323758
 21
-4841.61799999955
 31
0.0
  0
LINE
  5
4AE
  8
TFAS-0009
  6
CONTINUOUS
 62
     7
 10
6212.665677027746
 20
-4841.321293703539
 30
0.0
 11
6212.962383323758
 21
-4841.61799999955
 31
0.0
  0
LINE
  5
4AF
  8
TFAS-0009
  6
CONTINUOUS
 62
     7
 10
6193.773000000045
 20
-4854.117999999784
 30
0.0
 11
6193.773000000045
 21
-4841.617999999784
 31
0.0
  0
CIRCLE
  5
4B0
  8
TFAS-0009
  6
CONTINUOUS
 62
     7
 10
6837.273000000045
 20
-4841.617999999784
 30
0.0
 40
44.0
  0
CIRCLE
  5
4B1
  8
TFAS-0009
  6
CONTINUOUS
 62
     7
 10
6827.448022937773
 20
-4806.767022937438
 30
0.0
 40
1.5
  0
LINE
  5
4B2
  8
TFAS-0009
  6
CONTINUOUS
 62
     7
 10
6828.928317245016
 20
-4806.524682755195
 30
0.0
 11
6827.205682755526
 21
-4808.247317244685
 31
0.0
  0
LINE
  5
4B3
  8
TFAS-0009
  6
CONTINUOUS
 62
     7
 10
6828.491121024397
 20
-4805.689086769685
 30
0.0
 11
6826.370086770041
 21
-4807.810121024041
 31
0.0
  0
LINE
  5
4B4
  8
TFAS-0009
  6
CONTINUOUS
 62
     7
 10
6827.629387869301
 20
-4805.278027718635
 30
0.0
 11
6825.959027718975
 21
-4806.948387868962
 31
0.0
  0
LINE
  5
4B5
  8
TFAS-0009
  6
CONTINUOUS
 62
     7
 10
6828.881889913664
 20
-4807.207506189624
 30
0.0
 11
6827.88850618998
 21
-4808.200889913304
 31
0.0
  0
LINE
  5
4B6
  8
TFAS-0009
  6
CONTINUOUS
 62
     7
 10
6828.928317245016
 20
-4806.524682755195
 30
0.0
 11
6827.205682755526
 21
-4808.247317244685
 31
0.0
  0
LINE
  5
4B7
  8
TFAS-0009
  6
CONTINUOUS
 62
     7
 10
6828.765921404156
 20
-4806.050682492983
 30
0.0
 11
6826.731682493344
 21
-4808.084921403799
 31
0.0
  0
LINE
  5
4B8
  8
TFAS-0009
  6
CONTINUOUS
 62
     7
 10
6828.491121024397
 20
-4805.689086769685
 30
0.0
 11
6826.370086770041
 21
-4807.810121024041
 31
0.0
  0
LINE
  5
4B9
  8
TFAS-0009
  6
CONTINUOUS
 62
     7
 10
6828.118567446765
 20
-4805.425244244244
 30
0.0
 11
6826.1062442446
 21
-4807.437567446409
 31
0.0
  0
LINE
  5
4BA
  8
TFAS-0009
  6
CONTINUOUS
 62
     7
 10
6827.629387869301
 20
-4805.278027718635
 30
0.0
 11
6825.959027718975
 21
-4806.948387868962
 31
0.0
  0
LINE
  5
4BB
  8
TFAS-0009
  6
CONTINUOUS
 62
     7
 10
6826.900498079827
 20
-4805.370521405053
 30
0.0
 11
6826.051521405414
 21
-4806.21949807947
 31
0.0
  0
CIRCLE
  5
4BC
  8
TFAS-0009
  6
CONTINUOUS
 62
     7
 10
6833.048022937401
 20
-4808.367022937531
 30
0.0
 40
1.5
  0
LINE
  5
4BD
  8
TFAS-0009
  6
CONTINUOUS
 62
     7
 10
6834.528317244643
 20
-4808.124682755288
 30
0.0
 11
6832.805682755154
 21
-4809.847317244778
 31
0.0
  0
LINE
  5
4BE
  8
TFAS-0009
  6
CONTINUOUS
 62
     7
 10
6834.091121024025
 20
-4807.289086769778
 30
0.0
 11
6831.970086769668
 21
-4809.410121024134
 31
0.0
  0
LINE
  5
4BF
  8
TFAS-0009
  6
CONTINUOUS
 62
     7
 10
6833.229387868929
 20
-4806.878027718728
 30
0.0
 11
6831.559027718602
 21
-4808.548387869055
 31
0.0
  0
LINE
  5
4C0
  8
TFAS-0009
  6
CONTINUOUS
 62
     7
 10
6834.481889913292
 20
-4808.807506189717
 30
0.0
 11
6833.488506189608
 21
-4809.800889913397
 31
0.0
  0
LINE
  5
4C1
  8
TFAS-0009
  6
CONTINUOUS
 62
     7
 10
6834.528317244643
 20
-4808.124682755288
 30
0.0
 11
6832.805682755154
 21
-4809.847317244778
 31
0.0
  0
LINE
  5
4C2
  8
TFAS-0009
  6
CONTINUOUS
 62
     7
 10
6834.365921403783
 20
-4807.650682493077
 30
0.0
 11
6832.331682492972
 21
-4809.684921403892
 31
0.0
  0
LINE
  5
4C3
  8
TFAS-0009
  6
CONTINUOUS
 62
     7
 10
6834.091121024025
 20
-4807.289086769778
 30
0.0
 11
6831.970086769668
 21
-4809.410121024134
 31
0.0
  0
LINE
  5
4C4
  8
TFAS-0009
  6
CONTINUOUS
 62
     7
 10
6833.718567446393
 20
-4807.025244244337
 30
0.0
 11
6831.706244244227
 21
-4809.037567446502
 31
0.0
  0
LINE
  5
4C5
  8
TFAS-0009
  6
CONTINUOUS
 62
     7
 10
6833.229387868929
 20
-4806.878027718728
 30
0.0
 11
6831.559027718602
 21
-4808.548387869055
 31
0.0
  0
LINE
  5
4C6
  8
TFAS-0009
  6
CONTINUOUS
 62
     7
 10
6832.500498079455
 20
-4806.970521405146
 30
0.0
 11
6831.651521405041
 21
-4807.819498079563
 31
0.0
  0
CIRCLE
  5
4C7
  8
TFAS-0009
  6
CONTINUOUS
 62
     7
 10
6836.654022937546
 20
-4804.367022937531
 30
0.0
 40
1.5
  0
LINE
  5
4C8
  8
TFAS-0009
  6
CONTINUOUS
 62
     7
 10
6838.134317244789
 20
-4804.124682755288
 30
0.0
 11
6836.411682755299
 21
-4805.847317244778
 31
0.0
  0
LINE
  5
4C9
  8
TFAS-0009
  6
CONTINUOUS
 62
     7
 10
6837.69712102417
 20
-4803.289086769778
 30
0.0
 11
6835.576086769814
 21
-4805.410121024134
 31
0.0
  0
LINE
  5
4CA
  8
TFAS-0009
  6
CONTINUOUS
 62
     7
 10
6836.835387869074
 20
-4802.878027718728
 30
0.0
 11
6835.165027718747
 21
-4804.548387869055
 31
0.0
  0
LINE
  5
4CB
  8
TFAS-0009
  6
CONTINUOUS
 62
     7
 10
6838.087889913437
 20
-4804.807506189717
 30
0.0
 11
6837.094506189753
 21
-4805.800889913397
 31
0.0
  0
LINE
  5
4CC
  8
TFAS-0009
  6
CONTINUOUS
 62
     7
 10
6838.134317244789
 20
-4804.124682755288
 30
0.0
 11
6836.411682755299
 21
-4805.847317244778
 31
0.0
  0
LINE
  5
4CD
  8
TFAS-0009
  6
CONTINUOUS
 62
     7
 10
6837.971921403929
 20
-4803.650682493077
 30
0.0
 11
6835.937682493117
 21
-4805.684921403892
 31
0.0
  0
LINE
  5
4CE
  8
TFAS-0009
  6
CONTINUOUS
 62
     7
 10
6837.69712102417
 20
-4803.289086769778
 30
0.0
 11
6835.576086769814
 21
-4805.410121024134
 31
0.0
  0
LINE
  5
4CF
  8
TFAS-0009
  6
CONTINUOUS
 62
     7
 10
6837.324567446538
 20
-4803.025244244337
 30
0.0
 11
6835.312244244373
 21
-4805.037567446502
 31
0.0
  0
LINE
  5
4D0
  8
TFAS-0009
  6
CONTINUOUS
 62
     7
 10
6836.835387869074
 20
-4802.878027718728
 30
0.0
 11
6835.165027718747
 21
-4804.548387869055
 31
0.0
  0
LINE
  5
4D1
  8
TFAS-0009
  6
CONTINUOUS
 62
     7
 10
6836.1064980796
 20
-4802.970521405146
 30
0.0
 11
6835.257521405187
 21
-4803.819498079563
 31
0.0
  0
CIRCLE
  5
4D2
  8
TFAS-0009
  6
CONTINUOUS
 62
     7
 10
6842.008022937829
 20
-4807.08702293727
 30
0.0
 40
1.5
  0
LINE
  5
4D3
  8
TFAS-0009
  6
CONTINUOUS
 62
     7
 10
6843.488317245072
 20
-4806.844682755027
 30
0.0
 11
6841.765682755582
 21
-4808.567317244518
 31
0.0
  0
LINE
  5
4D4
  8
TFAS-0009
  6
CONTINUOUS
 62
     7
 10
6843.051121024453
 20
-4806.009086769517
 30
0.0
 11
6840.930086770097
 21
-4808.130121023873
 31
0.0
  0
LINE
  5
4D5
  8
TFAS-0009
  6
CONTINUOUS
 62
     7
 10
6842.189387869357
 20
-4805.598027718467
 30
0.0
 11
6840.51902771903
 21
-4807.268387868794
 31
0.0
  0
LINE
  5
4D6
  8
TFAS-0009
  6
CONTINUOUS
 62
     7
 10
6843.44188991372
 20
-4807.527506189456
 30
0.0
 11
6842.448506190036
 21
-4808.520889913137
 31
0.0
  0
LINE
  5
4D7
  8
TFAS-0009
  6
CONTINUOUS
 62
     7
 10
6843.488317245072
 20
-4806.844682755027
 30
0.0
 11
6841.765682755582
 21
-4808.567317244518
 31
0.0
  0
LINE
  5
4D8
  8
TFAS-0009
  6
CONTINUOUS
 62
     7
 10
6843.325921404212
 20
-4806.370682492816
 30
0.0
 11
6841.2916824934
 21
-4808.404921403631
 31
0.0
  0
LINE
  5
4D9
  8
TFAS-0009
  6
CONTINUOUS
 62
     7
 10
6843.051121024453
 20
-4806.009086769517
 30
0.0
 11
6840.930086770097
 21
-4808.130121023873
 31
0.0
  0
LINE
  5
4DA
  8
TFAS-0009
  6
CONTINUOUS
 62
     7
 10
6842.678567446821
 20
-4805.745244244076
 30
0.0
 11
6840.666244244656
 21
-4807.757567446241
 31
0.0
  0
LINE
  5
4DB
  8
TFAS-0009
  6
CONTINUOUS
 62
     7
 10
6842.189387869357
 20
-4805.598027718467
 30
0.0
 11
6840.51902771903
 21
-4807.268387868794
 31
0.0
  0
LINE
  5
4DC
  8
TFAS-0009
  6
CONTINUOUS
 62
     7
 10
6841.460498079883
 20
-4805.690521404886
 30
0.0
 11
6840.61152140547
 21
-4806.539498079303
 31
0.0
  0
CIRCLE
  5
4DD
  8
TFAS-0009
  6
CONTINUOUS
 62
     7
 10
6849.528022937848
 20
-4807.727022937401
 30
0.0
 40
1.5
  0
LINE
  5
4DE
  8
TFAS-0009
  6
CONTINUOUS
 62
     7
 10
6851.00831724509
 20
-4807.484682755157
 30
0.0
 11
6849.285682755601
 21
-4809.207317244648
 31
0.0
  0
LINE
  5
4DF
  8
TFAS-0009
  6
CONTINUOUS
 62
     7
 10
6850.571121024472
 20
-4806.649086769648
 30
0.0
 11
6848.450086770115
 21
-4808.770121024004
 31
0.0
  0
LINE
  5
4E0
  8
TFAS-0009
  6
CONTINUOUS
 62
     7
 10
6849.709387869376
 20
-4806.238027718598
 30
0.0
 11
6848.039027719049
 21
-4807.908387868924
 31
0.0
  0
LINE
  5
4E1
  8
TFAS-0009
  6
CONTINUOUS
 62
     7
 10
6850.961889913739
 20
-4808.167506189587
 30
0.0
 11
6849.968506190055
 21
-4809.160889913267
 31
0.0
  0
LINE
  5
4E2
  8
TFAS-0009
  6
CONTINUOUS
 62
     7
 10
6851.00831724509
 20
-4807.484682755157
 30
0.0
 11
6849.285682755601
 21
-4809.207317244648
 31
0.0
  0
LINE
  5
4E3
  8
TFAS-0009
  6
CONTINUOUS
 62
     7
 10
6850.84592140423
 20
-4807.010682492946
 30
0.0
 11
6848.811682493419
 21
-4809.044921403762
 31
0.0
  0
LINE
  5
4E4
  8
TFAS-0009
  6
CONTINUOUS
 62
     7
 10
6850.571121024472
 20
-4806.649086769648
 30
0.0
 11
6848.450086770115
 21
-4808.770121024004
 31
0.0
  0
LINE
  5
4E5
  8
TFAS-0009
  6
CONTINUOUS
 62
     7
 10
6850.19856744684
 20
-4806.385244244207
 30
0.0
 11
6848.186244244675
 21
-4808.397567446372
 31
0.0
  0
LINE
  5
4E6
  8
TFAS-0009
  6
CONTINUOUS
 62
     7
 10
6849.709387869376
 20
-4806.238027718598
 30
0.0
 11
6848.039027719049
 21
-4807.908387868924
 31
0.0
  0
LINE
  5
4E7
  8
TFAS-0009
  6
CONTINUOUS
 62
     7
 10
6848.980498079902
 20
-4806.330521405016
 30
0.0
 11
6848.131521405488
 21
-4807.179498079433
 31
0.0
  0
CIRCLE
  5
4E8
  8
TFAS-0009
  6
CONTINUOUS
 62
     7
 10
6855.128022937475
 20
-4810.607022937289
 30
0.0
 40
1.5
  0
LINE
  5
4E9
  8
TFAS-0009
  6
CONTINUOUS
 62
     7
 10
6856.608317244718
 20
-4810.364682755046
 30
0.0
 11
6854.885682755228
 21
-4812.087317244536
 31
0.0
  0
LINE
  5
4EA
  8
TFAS-0009
  6
CONTINUOUS
 62
     7
 10
6856.171121024099
 20
-4809.529086769536
 30
0.0
 11
6854.050086769743
 21
-4811.650121023892
 31
0.0
  0
LINE
  5
4EB
  8
TFAS-0009
  6
CONTINUOUS
 62
     7
 10
6855.309387869003
 20
-4809.118027718486
 30
0.0
 11
6853.639027718677
 21
-4810.788387868813
 31
0.0
  0
LINE
  5
4EC
  8
TFAS-0009
  6
CONTINUOUS
 62
     7
 10
6856.561889913366
 20
-4811.047506189475
 30
0.0
 11
6855.568506189682
 21
-4812.040889913155
 31
0.0
  0
LINE
  5
4ED
  8
TFAS-0009
  6
CONTINUOUS
 62
     7
 10
6856.608317244718
 20
-4810.364682755046
 30
0.0
 11
6854.885682755228
 21
-4812.087317244536
 31
0.0
  0
LINE
  5
4EE
  8
TFAS-0009
  6
CONTINUOUS
 62
     7
 10
6856.445921403858
 20
-4809.890682492834
 30
0.0
 11
6854.411682493046
 21
-4811.92492140365
 31
0.0
  0
LINE
  5
4EF
  8
TFAS-0009
  6
CONTINUOUS
 62
     7
 10
6856.171121024099
 20
-4809.529086769536
 30
0.0
 11
6854.050086769743
 21
-4811.650121023892
 31
0.0
  0
LINE
  5
4F0
  8
TFAS-0009
  6
CONTINUOUS
 62
     7
 10
6855.798567446467
 20
-4809.265244244095
 30
0.0
 11
6853.786244244302
 21
-4811.27756744626
 31
0.0
  0
LINE
  5
4F1
  8
TFAS-0009
  6
CONTINUOUS
 62
     7
 10
6855.309387869003
 20
-4809.118027718486
 30
0.0
 11
6853.639027718677
 21
-4810.788387868813
 31
0.0
  0
LINE
  5
4F2
  8
TFAS-0009
  6
CONTINUOUS
 62
     7
 10
6854.580498079529
 20
-4809.210521404904
 30
0.0
 11
6853.731521405116
 21
-4810.059498079321
 31
0.0
  0
CIRCLE
  5
4F3
  8
TFAS-0009
  6
CONTINUOUS
 62
     7
 10
6858.48802293781
 20
-4815.88702293755
 30
0.0
 40
1.5
  0
LINE
  5
4F4
  8
TFAS-0009
  6
CONTINUOUS
 62
     7
 10
6859.968317245053
 20
-4815.644682755306
 30
0.0
 11
6858.245682755563
 21
-4817.367317244797
 31
0.0
  0
LINE
  5
4F5
  8
TFAS-0009
  6
CONTINUOUS
 62
     7
 10
6859.531121024434
 20
-4814.809086769797
 30
0.0
 11
6857.410086770078
 21
-4816.930121024153
 31
0.0
  0
LINE
  5
4F6
  8
TFAS-0009
  6
CONTINUOUS
 62
     7
 10
6858.669387869339
 20
-4814.398027718747
 30
0.0
 11
6856.999027719012
 21
-4816.068387869073
 31
0.0
  0
LINE
  5
4F7
  8
TFAS-0009
  6
CONTINUOUS
 62
     7
 10
6859.921889913701
 20
-4816.327506189736
 30
0.0
 11
6858.928506190017
 21
-4817.320889913416
 31
0.0
  0
LINE
  5
4F8
  8
TFAS-0009
  6
CONTINUOUS
 62
     7
 10
6859.968317245053
 20
-4815.644682755306
 30
0.0
 11
6858.245682755563
 21
-4817.367317244797
 31
0.0
  0
LINE
  5
4F9
  8
TFAS-0009
  6
CONTINUOUS
 62
     7
 10
6859.805921404193
 20
-4815.170682493095
 30
0.0
 11
6857.771682493381
 21
-4817.204921403911
 31
0.0
  0
LINE
  5
4FA
  8
TFAS-0009
  6
CONTINUOUS
 62
     7
 10
6859.531121024434
 20
-4814.809086769797
 30
0.0
 11
6857.410086770078
 21
-4816.930121024153
 31
0.0
  0
LINE
  5
4FB
  8
TFAS-0009
  6
CONTINUOUS
 62
     7
 10
6859.158567446802
 20
-4814.545244244356
 30
0.0
 11
6857.146244244637
 21
-4816.557567446521
 31
0.0
  0
LINE
  5
4FC
  8
TFAS-0009
  6
CONTINUOUS
 62
     7
 10
6858.669387869339
 20
-4814.398027718747
 30
0.0
 11
6856.999027719012
 21
-4816.068387869073
 31
0.0
  0
LINE
  5
4FD
  8
TFAS-0009
  6
CONTINUOUS
 62
     7
 10
6857.940498079864
 20
-4814.490521405165
 30
0.0
 11
6857.091521405451
 21
-4815.339498079582
 31
0.0
  0
CIRCLE
  5
4FE
  8
TFAS-0009
  6
CONTINUOUS
 62
     7
 10
6864.568022937419
 20
-4816.999022937282
 30
0.0
 40
1.5
  0
LINE
  5
4FF
  8
TFAS-0009
  6
CONTINUOUS
 62
     7
 10
6866.048317244662
 20
-4816.756682755038
 30
0.0
 11
6864.325682755172
 21
-4818.479317244529
 31
0.0
  0
LINE
  5
500
  8
TFAS-0009
  6
CONTINUOUS
 62
     7
 10
6865.611121024043
 20
-4815.921086769528
 30
0.0
 11
6863.490086769687
 21
-4818.042121023885
 31
0.0
  0
LINE
  5
501
  8
TFAS-0009
  6
CONTINUOUS
 62
     7
 10
6864.749387868947
 20
-4815.510027718478
 30
0.0
 11
6863.079027718621
 21
-4817.180387868805
 31
0.0
  0
LINE
  5
502
  8
TFAS-0009
  6
CONTINUOUS
 62
     7
 10
6866.00188991331
 20
-4817.439506189467
 30
0.0
 11
6865.008506189626
 21
-4818.432889913148
 31
0.0
  0
LINE
  5
503
  8
TFAS-0009
  6
CONTINUOUS
 62
     7
 10
6866.048317244662
 20
-4816.756682755038
 30
0.0
 11
6864.325682755172
 21
-4818.479317244529
 31
0.0
  0
LINE
  5
504
  8
TFAS-0009
  6
CONTINUOUS
 62
     7
 10
6865.885921403802
 20
-4816.282682492827
 30
0.0
 11
6863.85168249299
 21
-4818.316921403642
 31
0.0
  0
LINE
  5
505
  8
TFAS-0009
  6
CONTINUOUS
 62
     7
 10
6865.611121024043
 20
-4815.921086769528
 30
0.0
 11
6863.490086769687
 21
-4818.042121023885
 31
0.0
  0
LINE
  5
506
  8
TFAS-0009
  6
CONTINUOUS
 62
     7
 10
6865.238567446411
 20
-4815.657244244087
 30
0.0
 11
6863.226244244246
 21
-4817.669567446253
 31
0.0
  0
LINE
  5
507
  8
TFAS-0009
  6
CONTINUOUS
 62
     7
 10
6864.749387868947
 20
-4815.510027718478
 30
0.0
 11
6863.079027718621
 21
-4817.180387868805
 31
0.0
  0
LINE
  5
508
  8
TFAS-0009
  6
CONTINUOUS
 62
     7
 10
6864.020498079473
 20
-4815.602521404897
 30
0.0
 11
6863.17152140506
 21
-4816.451498079314
 31
0.0
  0
CIRCLE
  5
509
  8
TFAS-0009
  6
CONTINUOUS
 62
     7
 10
6867.768022937606
 20
-4821.647022937326
 30
0.0
 40
1.5
  0
LINE
  5
50A
  8
TFAS-0009
  6
CONTINUOUS
 62
     7
 10
6869.248317244848
 20
-4821.404682755083
 30
0.0
 11
6867.525682755359
 21
-4823.127317244574
 31
0.0
  0
LINE
  5
50B
  8
TFAS-0009
  6
CONTINUOUS
 62
     7
 10
6868.81112102423
 20
-4820.569086769573
 30
0.0
 11
6866.690086769873
 21
-4822.690121023929
 31
0.0
  0
LINE
  5
50C
  8
TFAS-0009
  6
CONTINUOUS
 62
     7
 10
6867.949387869134
 20
-4820.158027718523
 30
0.0
 11
6866.279027718807
 21
-4821.82838786885
 31
0.0
  0
LINE
  5
50D
  8
TFAS-0009
  6
CONTINUOUS
 62
     7
 10
6869.201889913496
 20
-4822.087506189512
 30
0.0
 11
6868.208506189812
 21
-4823.080889913193
 31
0.0
  0
LINE
  5
50E
  8
TFAS-0009
  6
CONTINUOUS
 62
     7
 10
6869.248317244848
 20
-4821.404682755083
 30
0.0
 11
6867.525682755359
 21
-4823.127317244574
 31
0.0
  0
LINE
  5
50F
  8
TFAS-0009
  6
CONTINUOUS
 62
     7
 10
6869.085921403988
 20
-4820.930682492872
 30
0.0
 11
6867.051682493176
 21
-4822.964921403687
 31
0.0
  0
LINE
  5
510
  8
TFAS-0009
  6
CONTINUOUS
 62
     7
 10
6868.81112102423
 20
-4820.569086769573
 30
0.0
 11
6866.690086769873
 21
-4822.690121023929
 31
0.0
  0
LINE
  5
511
  8
TFAS-0009
  6
CONTINUOUS
 62
     7
 10
6868.438567446598
 20
-4820.305244244132
 30
0.0
 11
6866.426244244432
 21
-4822.317567446297
 31
0.0
  0
LINE
  5
512
  8
TFAS-0009
  6
CONTINUOUS
 62
     7
 10
6867.949387869134
 20
-4820.158027718523
 30
0.0
 11
6866.279027718807
 21
-4821.82838786885
 31
0.0
  0
LINE
  5
513
  8
TFAS-0009
  6
CONTINUOUS
 62
     7
 10
6867.22049807966
 20
-4820.250521404942
 30
0.0
 11
6866.371521405246
 21
-4821.099498079358
 31
0.0
  0
CIRCLE
  5
514
  8
TFAS-0009
  6
CONTINUOUS
 62
     7
 10
6866.968022937792
 20
-4828.207022937382
 30
0.0
 40
1.5
  0
LINE
  5
515
  8
TFAS-0009
  6
CONTINUOUS
 62
     7
 10
6868.448317245035
 20
-4827.964682755139
 30
0.0
 11
6866.725682755545
 21
-4829.687317244629
 31
0.0
  0
LINE
  5
516
  8
TFAS-0009
  6
CONTINUOUS
 62
     7
 10
6868.011121024416
 20
-4827.129086769629
 30
0.0
 11
6865.890086770059
 21
-4829.250121023985
 31
0.0
  0
LINE
  5
517
  8
TFAS-0009
  6
CONTINUOUS
 62
     7
 10
6867.14938786932
 20
-4826.718027718579
 30
0.0
 11
6865.479027718993
 21
-4828.388387868906
 31
0.0
  0
LINE
  5
518
  8
TFAS-0009
  6
CONTINUOUS
 62
     7
 10
6868.401889913683
 20
-4828.647506189568
 30
0.0
 11
6867.408506189999
 21
-4829.640889913248
 31
0.0
  0
LINE
  5
519
  8
TFAS-0009
  6
CONTINUOUS
 62
     7
 10
6868.448317245035
 20
-4827.964682755139
 30
0.0
 11
6866.725682755545
 21
-4829.687317244629
 31
0.0
  0
LINE
  5
51A
  8
TFAS-0009
  6
CONTINUOUS
 62
     7
 10
6868.285921404175
 20
-4827.490682492928
 30
0.0
 11
6866.251682493363
 21
-4829.524921403743
 31
0.0
  0
LINE
  5
51B
  8
TFAS-0009
  6
CONTINUOUS
 62
     7
 10
6868.011121024416
 20
-4827.129086769629
 30
0.0
 11
6865.890086770059
 21
-4829.250121023985
 31
0.0
  0
LINE
  5
51C
  8
TFAS-0009
  6
CONTINUOUS
 62
     7
 10
6867.638567446784
 20
-4826.865244244188
 30
0.0
 11
6865.626244244619
 21
-4828.877567446353
 31
0.0
  0
LINE
  5
51D
  8
TFAS-0009
  6
CONTINUOUS
 62
     7
 10
6867.14938786932
 20
-4826.718027718579
 30
0.0
 11
6865.479027718993
 21
-4828.388387868906
 31
0.0
  0
LINE
  5
51E
  8
TFAS-0009
  6
CONTINUOUS
 62
     7
 10
6866.420498079846
 20
-4826.810521404997
 30
0.0
 11
6865.571521405433
 21
-4827.659498079414
 31
0.0
  0
CIRCLE
  5
51F
  8
TFAS-0009
  6
CONTINUOUS
 62
     7
 10
6872.568022937419
 20
-4831.08702293727
 30
0.0
 40
1.5
  0
LINE
  5
520
  8
TFAS-0009
  6
CONTINUOUS
 62
     7
 10
6874.048317244662
 20
-4830.844682755027
 30
0.0
 11
6872.325682755172
 21
-4832.567317244518
 31
0.0
  0
LINE
  5
521
  8
TFAS-0009
  6
CONTINUOUS
 62
     7
 10
6873.611121024043
 20
-4830.009086769517
 30
0.0
 11
6871.490086769687
 21
-4832.130121023873
 31
0.0
  0
LINE
  5
522
  8
TFAS-0009
  6
CONTINUOUS
 62
     7
 10
6872.749387868947
 20
-4829.598027718467
 30
0.0
 11
6871.079027718621
 21
-4831.268387868794
 31
0.0
  0
LINE
  5
523
  8
TFAS-0009
  6
CONTINUOUS
 62
     7
 10
6874.00188991331
 20
-4831.527506189456
 30
0.0
 11
6873.008506189626
 21
-4832.520889913137
 31
0.0
  0
LINE
  5
524
  8
TFAS-0009
  6
CONTINUOUS
 62
     7
 10
6874.048317244662
 20
-4830.844682755027
 30
0.0
 11
6872.325682755172
 21
-4832.567317244518
 31
0.0
  0
LINE
  5
525
  8
TFAS-0009
  6
CONTINUOUS
 62
     7
 10
6873.885921403802
 20
-4830.370682492816
 30
0.0
 11
6871.85168249299
 21
-4832.404921403631
 31
0.0
  0
LINE
  5
526
  8
TFAS-0009
  6
CONTINUOUS
 62
     7
 10
6873.611121024043
 20
-4830.009086769517
 30
0.0
 11
6871.490086769687
 21
-4832.130121023873
 31
0.0
  0
LINE
  5
527
  8
TFAS-0009
  6
CONTINUOUS
 62
     7
 10
6873.238567446411
 20
-4829.745244244076
 30
0.0
 11
6871.226244244246
 21
-4831.757567446241
 31
0.0
  0
LINE
  5
528
  8
TFAS-0009
  6
CONTINUOUS
 62
     7
 10
6872.749387868947
 20
-4829.598027718467
 30
0.0
 11
6871.079027718621
 21
-4831.268387868794
 31
0.0
  0
LINE
  5
529
  8
TFAS-0009
  6
CONTINUOUS
 62
     7
 10
6872.020498079473
 20
-4829.690521404886
 30
0.0
 11
6871.17152140506
 21
-4830.539498079303
 31
0.0
  0
CIRCLE
  5
52A
  8
TFAS-0009
  6
CONTINUOUS
 62
     7
 10
6870.648022937494
 20
-4838.127022937308
 30
0.0
 40
1.5
  0
LINE
  5
52B
  8
TFAS-0009
  6
CONTINUOUS
 62
     7
 10
6872.128317244737
 20
-4837.884682755064
 30
0.0
 11
6870.405682755247
 21
-4839.607317244555
 31
0.0
  0
LINE
  5
52C
  8
TFAS-0009
  6
CONTINUOUS
 62
     7
 10
6871.691121024118
 20
-4837.049086769554
 30
0.0
 11
6869.570086769761
 21
-4839.170121023911
 31
0.0
  0
LINE
  5
52D
  8
TFAS-0009
  6
CONTINUOUS
 62
     7
 10
6870.829387869022
 20
-4836.638027718504
 30
0.0
 11
6869.159027718695
 21
-4838.308387868831
 31
0.0
  0
LINE
  5
52E
  8
TFAS-0009
  6
CONTINUOUS
 62
     7
 10
6872.081889913385
 20
-4838.567506189494
 30
0.0
 11
6871.088506189701
 21
-4839.560889913174
 31
0.0
  0
LINE
  5
52F
  8
TFAS-0009
  6
CONTINUOUS
 62
     7
 10
6872.128317244737
 20
-4837.884682755064
 30
0.0
 11
6870.405682755247
 21
-4839.607317244555
 31
0.0
  0
LINE
  5
530
  8
TFAS-0009
  6
CONTINUOUS
 62
     7
 10
6871.965921403877
 20
-4837.410682492853
 30
0.0
 11
6869.931682493065
 21
-4839.444921403669
 31
0.0
  0
LINE
  5
531
  8
TFAS-0009
  6
CONTINUOUS
 62
     7
 10
6871.691121024118
 20
-4837.049086769554
 30
0.0
 11
6869.570086769761
 21
-4839.170121023911
 31
0.0
  0
LINE
  5
532
  8
TFAS-0009
  6
CONTINUOUS
 62
     7
 10
6871.318567446486
 20
-4836.785244244114
 30
0.0
 11
6869.306244244321
 21
-4838.797567446279
 31
0.0
  0
LINE
  5
533
  8
TFAS-0009
  6
CONTINUOUS
 62
     7
 10
6870.829387869022
 20
-4836.638027718504
 30
0.0
 11
6869.159027718695
 21
-4838.308387868831
 31
0.0
  0
LINE
  5
534
  8
TFAS-0009
  6
CONTINUOUS
 62
     7
 10
6870.100498079548
 20
-4836.730521404923
 30
0.0
 11
6869.251521405135
 21
-4837.57949807934
 31
0.0
  0
CIRCLE
  5
535
  8
TFAS-0009
  6
CONTINUOUS
 62
     7
 10
6873.84802293768
 20
-4842.767022937438
 30
0.0
 40
1.5
  0
LINE
  5
536
  8
TFAS-0009
  6
CONTINUOUS
 62
     7
 10
6875.328317244923
 20
-4842.524682755195
 30
0.0
 11
6873.605682755433
 21
-4844.247317244685
 31
0.0
  0
LINE
  5
537
  8
TFAS-0009
  6
CONTINUOUS
 62
     7
 10
6874.891121024304
 20
-4841.689086769685
 30
0.0
 11
6872.770086769948
 21
-4843.810121024041
 31
0.0
  0
LINE
  5
538
  8
TFAS-0009
  6
CONTINUOUS
 62
     7
 10
6874.029387869208
 20
-4841.278027718635
 30
0.0
 11
6872.359027718881
 21
-4842.948387868962
 31
0.0
  0
LINE
  5
539
  8
TFAS-0009
  6
CONTINUOUS
 62
     7
 10
6875.281889913571
 20
-4843.207506189624
 30
0.0
 11
6874.288506189887
 21
-4844.200889913304
 31
0.0
  0
LINE
  5
53A
  8
TFAS-0009
  6
CONTINUOUS
 62
     7
 10
6875.328317244923
 20
-4842.524682755195
 30
0.0
 11
6873.605682755433
 21
-4844.247317244685
 31
0.0
  0
LINE
  5
53B
  8
TFAS-0009
  6
CONTINUOUS
 62
     7
 10
6875.165921404063
 20
-4842.050682492983
 30
0.0
 11
6873.131682493251
 21
-4844.084921403799
 31
0.0
  0
LINE
  5
53C
  8
TFAS-0009
  6
CONTINUOUS
 62
     7
 10
6874.891121024304
 20
-4841.689086769685
 30
0.0
 11
6872.770086769948
 21
-4843.810121024041
 31
0.0
  0
LINE
  5
53D
  8
TFAS-0009
  6
CONTINUOUS
 62
     7
 10
6874.518567446672
 20
-4841.425244244244
 30
0.0
 11
6872.506244244507
 21
-4843.437567446409
 31
0.0
  0
LINE
  5
53E
  8
TFAS-0009
  6
CONTINUOUS
 62
     7
 10
6874.029387869208
 20
-4841.278027718635
 30
0.0
 11
6872.359027718881
 21
-4842.948387868962
 31
0.0
  0
LINE
  5
53F
  8
TFAS-0009
  6
CONTINUOUS
 62
     7
 10
6873.300498079734
 20
-4841.370521405053
 30
0.0
 11
6872.451521405321
 21
-4842.21949807947
 31
0.0
  0
CIRCLE
  5
540
  8
TFAS-0009
  6
CONTINUOUS
 62
     7
 10
6871.448022937773
 20
-4851.247022937419
 30
0.0
 40
1.5
  0
LINE
  5
541
  8
TFAS-0009
  6
CONTINUOUS
 62
     7
 10
6872.928317245016
 20
-4851.004682755176
 30
0.0
 11
6871.205682755526
 21
-4852.727317244667
 31
0.0
  0
LINE
  5
542
  8
TFAS-0009
  6
CONTINUOUS
 62
     7
 10
6872.491121024397
 20
-4850.169086769666
 30
0.0
 11
6870.370086770041
 21
-4852.290121024022
 31
0.0
  0
LINE
  5
543
  8
TFAS-0009
  6
CONTINUOUS
 62
     7
 10
6871.629387869301
 20
-4849.758027718616
 30
0.0
 11
6869.959027718975
 21
-4851.428387868943
 31
0.0
  0
LINE
  5
544
  8
TFAS-0009
  6
CONTINUOUS
 62
     7
 10
6872.881889913664
 20
-4851.687506189605
 30
0.0
 11
6871.88850618998
 21
-4852.680889913286
 31
0.0
  0
LINE
  5
545
  8
TFAS-0009
  6
CONTINUOUS
 62
     7
 10
6872.928317245016
 20
-4851.004682755176
 30
0.0
 11
6871.205682755526
 21
-4852.727317244667
 31
0.0
  0
LINE
  5
546
  8
TFAS-0009
  6
CONTINUOUS
 62
     7
 10
6872.765921404156
 20
-4850.530682492965
 30
0.0
 11
6870.731682493344
 21
-4852.56492140378
 31
0.0
  0
LINE
  5
547
  8
TFAS-0009
  6
CONTINUOUS
 62
     7
 10
6872.491121024397
 20
-4850.169086769666
 30
0.0
 11
6870.370086770041
 21
-4852.290121024022
 31
0.0
  0
LINE
  5
548
  8
TFAS-0009
  6
CONTINUOUS
 62
     7
 10
6872.118567446765
 20
-4849.905244244225
 30
0.0
 11
6870.1062442446
 21
-4851.91756744639
 31
0.0
  0
LINE
  5
549
  8
TFAS-0009
  6
CONTINUOUS
 62
     7
 10
6871.629387869301
 20
-4849.758027718616
 30
0.0
 11
6869.959027718975
 21
-4851.428387868943
 31
0.0
  0
LINE
  5
54A
  8
TFAS-0009
  6
CONTINUOUS
 62
     7
 10
6870.900498079827
 20
-4849.850521405035
 30
0.0
 11
6870.051521405414
 21
-4850.699498079452
 31
0.0
  0
CIRCLE
  5
54B
  8
TFAS-0009
  6
CONTINUOUS
 62
     7
 10
6867.768022937606
 20
-4845.967022937159
 30
0.0
 40
1.5
  0
LINE
  5
54C
  8
TFAS-0009
  6
CONTINUOUS
 62
     7
 10
6869.248317244848
 20
-4845.724682754915
 30
0.0
 11
6867.525682755359
 21
-4847.447317244406
 31
0.0
  0
LINE
  5
54D
  8
TFAS-0009
  6
CONTINUOUS
 62
     7
 10
6868.81112102423
 20
-4844.889086769405
 30
0.0
 11
6866.690086769873
 21
-4847.010121023762
 31
0.0
  0
LINE
  5
54E
  8
TFAS-0009
  6
CONTINUOUS
 62
     7
 10
6867.949387869134
 20
-4844.478027718355
 30
0.0
 11
6866.279027718807
 21
-4846.148387868682
 31
0.0
  0
LINE
  5
54F
  8
TFAS-0009
  6
CONTINUOUS
 62
     7
 10
6869.201889913496
 20
-4846.407506189345
 30
0.0
 11
6868.208506189812
 21
-4847.400889913025
 31
0.0
  0
LINE
  5
550
  8
TFAS-0009
  6
CONTINUOUS
 62
     7
 10
6869.248317244848
 20
-4845.724682754915
 30
0.0
 11
6867.525682755359
 21
-4847.447317244406
 31
0.0
  0
LINE
  5
551
  8
TFAS-0009
  6
CONTINUOUS
 62
     7
 10
6869.085921403988
 20
-4845.250682492704
 30
0.0
 11
6867.051682493176
 21
-4847.28492140352
 31
0.0
  0
LINE
  5
552
  8
TFAS-0009
  6
CONTINUOUS
 62
     7
 10
6868.81112102423
 20
-4844.889086769405
 30
0.0
 11
6866.690086769873
 21
-4847.010121023762
 31
0.0
  0
LINE
  5
553
  8
TFAS-0009
  6
CONTINUOUS
 62
     7
 10
6868.438567446598
 20
-4844.625244243965
 30
0.0
 11
6866.426244244432
 21
-4846.63756744613
 31
0.0
  0
LINE
  5
554
  8
TFAS-0009
  6
CONTINUOUS
 62
     7
 10
6867.949387869134
 20
-4844.478027718355
 30
0.0
 11
6866.279027718807
 21
-4846.148387868682
 31
0.0
  0
LINE
  5
555
  8
TFAS-0009
  6
CONTINUOUS
 62
     7
 10
6867.22049807966
 20
-4844.570521404774
 30
0.0
 11
6866.371521405246
 21
-4845.419498079191
 31
0.0
  0
CIRCLE
  5
556
  8
TFAS-0009
  6
CONTINUOUS
 62
     7
 10
6870.328022937661
 20
-4856.847022937513
 30
0.0
 40
1.5
  0
LINE
  5
557
  8
TFAS-0009
  6
CONTINUOUS
 62
     7
 10
6871.808317244904
 20
-4856.604682755269
 30
0.0
 11
6870.085682755414
 21
-4858.32731724476
 31
0.0
  0
LINE
  5
558
  8
TFAS-0009
  6
CONTINUOUS
 62
     7
 10
6871.371121024285
 20
-4855.769086769759
 30
0.0
 11
6869.250086769929
 21
-4857.890121024116
 31
0.0
  0
LINE
  5
559
  8
TFAS-0009
  6
CONTINUOUS
 62
     7
 10
6870.50938786919
 20
-4855.358027718709
 30
0.0
 11
6868.839027718863
 21
-4857.028387869036
 31
0.0
  0
LINE
  5
55A
  8
TFAS-0009
  6
CONTINUOUS
 62
     7
 10
6871.761889913552
 20
-4857.287506189698
 30
0.0
 11
6870.768506189868
 21
-4858.280889913379
 31
0.0
  0
LINE
  5
55B
  8
TFAS-0009
  6
CONTINUOUS
 62
     7
 10
6871.808317244904
 20
-4856.604682755269
 30
0.0
 11
6870.085682755414
 21
-4858.32731724476
 31
0.0
  0
LINE
  5
55C
  8
TFAS-0009
  6
CONTINUOUS
 62
     7
 10
6871.645921404044
 20
-4856.130682493058
 30
0.0
 11
6869.611682493232
 21
-4858.164921403873
 31
0.0
  0
LINE
  5
55D
  8
TFAS-0009
  6
CONTINUOUS
 62
     7
 10
6871.371121024285
 20
-4855.769086769759
 30
0.0
 11
6869.250086769929
 21
-4857.890121024116
 31
0.0
  0
LINE
  5
55E
  8
TFAS-0009
  6
CONTINUOUS
 62
     7
 10
6870.998567446653
 20
-4855.505244244318
 30
0.0
 11
6868.986244244488
 21
-4857.517567446484
 31
0.0
  0
LINE
  5
55F
  8
TFAS-0009
  6
CONTINUOUS
 62
     7
 10
6870.50938786919
 20
-4855.358027718709
 30
0.0
 11
6868.839027718863
 21
-4857.028387869036
 31
0.0
  0
LINE
  5
560
  8
TFAS-0009
  6
CONTINUOUS
 62
     7
 10
6869.780498079715
 20
-4855.450521405128
 30
0.0
 11
6868.931521405302
 21
-4856.299498079545
 31
0.0
  0
CIRCLE
  5
561
  8
TFAS-0009
  6
CONTINUOUS
 62
     7
 10
6866.48802293781
 20
-4861.967022937159
 30
0.0
 40
1.5
  0
LINE
  5
562
  8
TFAS-0009
  6
CONTINUOUS
 62
     7
 10
6867.968317245053
 20
-4861.724682754915
 30
0.0
 11
6866.245682755563
 21
-4863.447317244406
 31
0.0
  0
LINE
  5
563
  8
TFAS-0009
  6
CONTINUOUS
 62
     7
 10
6867.531121024434
 20
-4860.889086769405
 30
0.0
 11
6865.410086770078
 21
-4863.010121023762
 31
0.0
  0
LINE
  5
564
  8
TFAS-0009
  6
CONTINUOUS
 62
     7
 10
6866.669387869339
 20
-4860.478027718355
 30
0.0
 11
6864.999027719012
 21
-4862.148387868682
 31
0.0
  0
LINE
  5
565
  8
TFAS-0009
  6
CONTINUOUS
 62
     7
 10
6867.921889913701
 20
-4862.407506189345
 30
0.0
 11
6866.928506190017
 21
-4863.400889913025
 31
0.0
  0
LINE
  5
566
  8
TFAS-0009
  6
CONTINUOUS
 62
     7
 10
6867.968317245053
 20
-4861.724682754915
 30
0.0
 11
6866.245682755563
 21
-4863.447317244406
 31
0.0
  0
LINE
  5
567
  8
TFAS-0009
  6
CONTINUOUS
 62
     7
 10
6867.805921404193
 20
-4861.250682492704
 30
0.0
 11
6865.771682493381
 21
-4863.28492140352
 31
0.0
  0
LINE
  5
568
  8
TFAS-0009
  6
CONTINUOUS
 62
     7
 10
6867.531121024434
 20
-4860.889086769405
 30
0.0
 11
6865.410086770078
 21
-4863.010121023762
 31
0.0
  0
LINE
  5
569
  8
TFAS-0009
  6
CONTINUOUS
 62
     7
 10
6867.158567446802
 20
-4860.625244243965
 30
0.0
 11
6865.146244244637
 21
-4862.63756744613
 31
0.0
  0
LINE
  5
56A
  8
TFAS-0009
  6
CONTINUOUS
 62
     7
 10
6866.669387869339
 20
-4860.478027718355
 30
0.0
 11
6864.999027719012
 21
-4862.148387868682
 31
0.0
  0
LINE
  5
56B
  8
TFAS-0009
  6
CONTINUOUS
 62
     7
 10
6865.940498079864
 20
-4860.570521404774
 30
0.0
 11
6865.091521405451
 21
-4861.419498079191
 31
0.0
  0
CIRCLE
  5
56C
  8
TFAS-0009
  6
CONTINUOUS
 62
     7
 10
6863.928022937755
 20
-4866.767022937438
 30
0.0
 40
1.5
  0
LINE
  5
56D
  8
TFAS-0009
  6
CONTINUOUS
 62
     7
 10
6865.408317244997
 20
-4866.524682755195
 30
0.0
 11
6863.685682755508
 21
-4868.247317244685
 31
0.0
  0
LINE
  5
56E
  8
TFAS-0009
  6
CONTINUOUS
 62
     7
 10
6864.971121024379
 20
-4865.689086769685
 30
0.0
 11
6862.850086770022
 21
-4867.810121024041
 31
0.0
  0
LINE
  5
56F
  8
TFAS-0009
  6
CONTINUOUS
 62
     7
 10
6864.109387869283
 20
-4865.278027718635
 30
0.0
 11
6862.439027718956
 21
-4866.948387868962
 31
0.0
  0
LINE
  5
570
  8
TFAS-0009
  6
CONTINUOUS
 62
     7
 10
6865.361889913645
 20
-4867.207506189624
 30
0.0
 11
6864.368506189961
 21
-4868.200889913304
 31
0.0
  0
LINE
  5
571
  8
TFAS-0009
  6
CONTINUOUS
 62
     7
 10
6865.408317244997
 20
-4866.524682755195
 30
0.0
 11
6863.685682755508
 21
-4868.247317244685
 31
0.0
  0
LINE
  5
572
  8
TFAS-0009
  6
CONTINUOUS
 62
     7
 10
6865.245921404137
 20
-4866.050682492983
 30
0.0
 11
6863.211682493325
 21
-4868.084921403799
 31
0.0
  0
LINE
  5
573
  8
TFAS-0009
  6
CONTINUOUS
 62
     7
 10
6864.971121024379
 20
-4865.689086769685
 30
0.0
 11
6862.850086770022
 21
-4867.810121024041
 31
0.0
  0
LINE
  5
574
  8
TFAS-0009
  6
CONTINUOUS
 62
     7
 10
6864.598567446747
 20
-4865.425244244244
 30
0.0
 11
6862.586244244581
 21
-4867.437567446409
 31
0.0
  0
LINE
  5
575
  8
TFAS-0009
  6
CONTINUOUS
 62
     7
 10
6864.109387869283
 20
-4865.278027718635
 30
0.0
 11
6862.439027718956
 21
-4866.948387868962
 31
0.0
  0
LINE
  5
576
  8
TFAS-0009
  6
CONTINUOUS
 62
     7
 10
6863.380498079809
 20
-4865.370521405053
 30
0.0
 11
6862.531521405395
 21
-4866.21949807947
 31
0.0
  0
CIRCLE
  5
577
  8
TFAS-0009
  6
CONTINUOUS
 62
     7
 10
6856.728022937568
 20
-4871.08702293727
 30
0.0
 40
1.5
  0
LINE
  5
578
  8
TFAS-0009
  6
CONTINUOUS
 62
     7
 10
6858.208317244811
 20
-4870.844682755027
 30
0.0
 11
6856.485682755321
 21
-4872.567317244518
 31
0.0
  0
LINE
  5
579
  8
TFAS-0009
  6
CONTINUOUS
 62
     7
 10
6857.771121024192
 20
-4870.009086769517
 30
0.0
 11
6855.650086769836
 21
-4872.130121023873
 31
0.0
  0
LINE
  5
57A
  8
TFAS-0009
  6
CONTINUOUS
 62
     7
 10
6856.909387869096
 20
-4869.598027718467
 30
0.0
 11
6855.23902771877
 21
-4871.268387868794
 31
0.0
  0
LINE
  5
57B
  8
TFAS-0009
  6
CONTINUOUS
 62
     7
 10
6858.161889913459
 20
-4871.527506189456
 30
0.0
 11
6857.168506189775
 21
-4872.520889913137
 31
0.0
  0
LINE
  5
57C
  8
TFAS-0009
  6
CONTINUOUS
 62
     7
 10
6858.208317244811
 20
-4870.844682755027
 30
0.0
 11
6856.485682755321
 21
-4872.567317244518
 31
0.0
  0
LINE
  5
57D
  8
TFAS-0009
  6
CONTINUOUS
 62
     7
 10
6858.045921403951
 20
-4870.370682492816
 30
0.0
 11
6856.011682493139
 21
-4872.404921403631
 31
0.0
  0
LINE
  5
57E
  8
TFAS-0009
  6
CONTINUOUS
 62
     7
 10
6857.771121024192
 20
-4870.009086769517
 30
0.0
 11
6855.650086769836
 21
-4872.130121023873
 31
0.0
  0
LINE
  5
57F
  8
TFAS-0009
  6
CONTINUOUS
 62
     7
 10
6857.39856744656
 20
-4869.745244244076
 30
0.0
 11
6855.386244244395
 21
-4871.757567446241
 31
0.0
  0
LINE
  5
580
  8
TFAS-0009
  6
CONTINUOUS
 62
     7
 10
6856.909387869096
 20
-4869.598027718467
 30
0.0
 11
6855.23902771877
 21
-4871.268387868794
 31
0.0
  0
LINE
  5
581
  8
TFAS-0009
  6
CONTINUOUS
 62
     7
 10
6856.180498079622
 20
-4869.690521404886
 30
0.0
 11
6855.331521405209
 21
-4870.539498079303
 31
0.0
  0
CIRCLE
  5
582
  8
TFAS-0009
  6
CONTINUOUS
 62
     7
 10
6850.168022937512
 20
-4875.407022937568
 30
0.0
 40
1.5
  0
LINE
  5
583
  8
TFAS-0009
  6
CONTINUOUS
 62
     7
 10
6851.648317244755
 20
-4875.164682755325
 30
0.0
 11
6849.925682755265
 21
-4876.887317244816
 31
0.0
  0
LINE
  5
584
  8
TFAS-0009
  6
CONTINUOUS
 62
     7
 10
6851.211121024136
 20
-4874.329086769815
 30
0.0
 11
6849.09008676978
 21
-4876.450121024171
 31
0.0
  0
LINE
  5
585
  8
TFAS-0009
  6
CONTINUOUS
 62
     7
 10
6850.349387869041
 20
-4873.918027718765
 30
0.0
 11
6848.679027718714
 21
-4875.588387869092
 31
0.0
  0
LINE
  5
586
  8
TFAS-0009
  6
CONTINUOUS
 62
     7
 10
6851.601889913403
 20
-4875.847506189754
 30
0.0
 11
6850.608506189719
 21
-4876.840889913435
 31
0.0
  0
LINE
  5
587
  8
TFAS-0009
  6
CONTINUOUS
 62
     7
 10
6851.648317244755
 20
-4875.164682755325
 30
0.0
 11
6849.925682755265
 21
-4876.887317244816
 31
0.0
  0
LINE
  5
588
  8
TFAS-0009
  6
CONTINUOUS
 62
     7
 10
6851.485921403895
 20
-4874.690682493114
 30
0.0
 11
6849.451682493083
 21
-4876.724921403929
 31
0.0
  0
LINE
  5
589
  8
TFAS-0009
  6
CONTINUOUS
 62
     7
 10
6851.211121024136
 20
-4874.329086769815
 30
0.0
 11
6849.09008676978
 21
-4876.450121024171
 31
0.0
  0
LINE
  5
58A
  8
TFAS-0009
  6
CONTINUOUS
 62
     7
 10
6850.838567446504
 20
-4874.065244244374
 30
0.0
 11
6848.826244244339
 21
-4876.077567446539
 31
0.0
  0
LINE
  5
58B
  8
TFAS-0009
  6
CONTINUOUS
 62
     7
 10
6850.349387869041
 20
-4873.918027718765
 30
0.0
 11
6848.679027718714
 21
-4875.588387869092
 31
0.0
  0
LINE
  5
58C
  8
TFAS-0009
  6
CONTINUOUS
 62
     7
 10
6849.620498079566
 20
-4874.010521405184
 30
0.0
 11
6848.771521405153
 21
-4874.859498079601
 31
0.0
  0
CIRCLE
  5
58D
  8
TFAS-0009
  6
CONTINUOUS
 62
     7
 10
6842.48802293781
 20
-4874.927022937587
 30
0.0
 40
1.5
  0
LINE
  5
58E
  8
TFAS-0009
  6
CONTINUOUS
 62
     7
 10
6843.968317245053
 20
-4874.684682755344
 30
0.0
 11
6842.245682755563
 21
-4876.407317244834
 31
0.0
  0
LINE
  5
58F
  8
TFAS-0009
  6
CONTINUOUS
 62
     7
 10
6843.531121024434
 20
-4873.849086769834
 30
0.0
 11
6841.410086770078
 21
-4875.97012102419
 31
0.0
  0
LINE
  5
590
  8
TFAS-0009
  6
CONTINUOUS
 62
     7
 10
6842.669387869339
 20
-4873.438027718784
 30
0.0
 11
6840.999027719012
 21
-4875.108387869111
 31
0.0
  0
LINE
  5
591
  8
TFAS-0009
  6
CONTINUOUS
 62
     7
 10
6843.921889913701
 20
-4875.367506189773
 30
0.0
 11
6842.928506190017
 21
-4876.360889913453
 31
0.0
  0
LINE
  5
592
  8
TFAS-0009
  6
CONTINUOUS
 62
     7
 10
6843.968317245053
 20
-4874.684682755344
 30
0.0
 11
6842.245682755563
 21
-4876.407317244834
 31
0.0
  0
LINE
  5
593
  8
TFAS-0009
  6
CONTINUOUS
 62
     7
 10
6843.805921404193
 20
-4874.210682493132
 30
0.0
 11
6841.771682493381
 21
-4876.244921403948
 31
0.0
  0
LINE
  5
594
  8
TFAS-0009
  6
CONTINUOUS
 62
     7
 10
6843.531121024434
 20
-4873.849086769834
 30
0.0
 11
6841.410086770078
 21
-4875.97012102419
 31
0.0
  0
LINE
  5
595
  8
TFAS-0009
  6
CONTINUOUS
 62
     7
 10
6843.158567446802
 20
-4873.585244244393
 30
0.0
 11
6841.146244244637
 21
-4875.597567446558
 31
0.0
  0
LINE
  5
596
  8
TFAS-0009
  6
CONTINUOUS
 62
     7
 10
6842.669387869339
 20
-4873.438027718784
 30
0.0
 11
6840.999027719012
 21
-4875.108387869111
 31
0.0
  0
LINE
  5
597
  8
TFAS-0009
  6
CONTINUOUS
 62
     7
 10
6841.940498079864
 20
-4873.530521405202
 30
0.0
 11
6841.091521405451
 21
-4874.379498079619
 31
0.0
  0
CIRCLE
  5
598
  8
TFAS-0009
  6
CONTINUOUS
 62
     7
 10
6837.84802293768
 20
-4878.287022937457
 30
0.0
 40
1.5
  0
LINE
  5
599
  8
TFAS-0009
  6
CONTINUOUS
 62
     7
 10
6839.328317244923
 20
-4878.044682755213
 30
0.0
 11
6837.605682755433
 21
-4879.767317244704
 31
0.0
  0
LINE
  5
59A
  8
TFAS-0009
  6
CONTINUOUS
 62
     7
 10
6838.891121024304
 20
-4877.209086769703
 30
0.0
 11
6836.770086769948
 21
-4879.33012102406
 31
0.0
  0
LINE
  5
59B
  8
TFAS-0009
  6
CONTINUOUS
 62
     7
 10
6838.029387869208
 20
-4876.798027718653
 30
0.0
 11
6836.359027718881
 21
-4878.46838786898
 31
0.0
  0
LINE
  5
59C
  8
TFAS-0009
  6
CONTINUOUS
 62
     7
 10
6839.281889913571
 20
-4878.727506189643
 30
0.0
 11
6838.288506189887
 21
-4879.720889913323
 31
0.0
  0
LINE
  5
59D
  8
TFAS-0009
  6
CONTINUOUS
 62
     7
 10
6839.328317244923
 20
-4878.044682755213
 30
0.0
 11
6837.605682755433
 21
-4879.767317244704
 31
0.0
  0
LINE
  5
59E
  8
TFAS-0009
  6
CONTINUOUS
 62
     7
 10
6839.165921404063
 20
-4877.570682493002
 30
0.0
 11
6837.131682493251
 21
-4879.604921403818
 31
0.0
  0
LINE
  5
59F
  8
TFAS-0009
  6
CONTINUOUS
 62
     7
 10
6838.891121024304
 20
-4877.209086769703
 30
0.0
 11
6836.770086769948
 21
-4879.33012102406
 31
0.0
  0
LINE
  5
5A0
  8
TFAS-0009
  6
CONTINUOUS
 62
     7
 10
6838.518567446672
 20
-4876.945244244263
 30
0.0
 11
6836.506244244507
 21
-4878.957567446428
 31
0.0
  0
LINE
  5
5A1
  8
TFAS-0009
  6
CONTINUOUS
 62
     7
 10
6838.029387869208
 20
-4876.798027718653
 30
0.0
 11
6836.359027718881
 21
-4878.46838786898
 31
0.0
  0
LINE
  5
5A2
  8
TFAS-0009
  6
CONTINUOUS
 62
     7
 10
6837.300498079734
 20
-4876.890521405072
 30
0.0
 11
6836.451521405321
 21
-4877.739498079489
 31
0.0
  0
CIRCLE
  5
5A3
  8
TFAS-0009
  6
CONTINUOUS
 62
     7
 10
6830.968022937792
 20
-4877.327022937494
 30
0.0
 40
1.5
  0
LINE
  5
5A4
  8
TFAS-0009
  6
CONTINUOUS
 62
     7
 10
6832.448317245035
 20
-4877.08468275525
 30
0.0
 11
6830.725682755545
 21
-4878.807317244741
 31
0.0
  0
LINE
  5
5A5
  8
TFAS-0009
  6
CONTINUOUS
 62
     7
 10
6832.011121024416
 20
-4876.249086769741
 30
0.0
 11
6829.890086770059
 21
-4878.370121024097
 31
0.0
  0
LINE
  5
5A6
  8
TFAS-0009
  6
CONTINUOUS
 62
     7
 10
6831.14938786932
 20
-4875.838027718691
 30
0.0
 11
6829.479027718993
 21
-4877.508387869017
 31
0.0
  0
LINE
  5
5A7
  8
TFAS-0009
  6
CONTINUOUS
 62
     7
 10
6832.401889913683
 20
-4877.76750618968
 30
0.0
 11
6831.408506189999
 21
-4878.76088991336
 31
0.0
  0
LINE
  5
5A8
  8
TFAS-0009
  6
CONTINUOUS
 62
     7
 10
6832.448317245035
 20
-4877.08468275525
 30
0.0
 11
6830.725682755545
 21
-4878.807317244741
 31
0.0
  0
LINE
  5
5A9
  8
TFAS-0009
  6
CONTINUOUS
 62
     7
 10
6832.285921404175
 20
-4876.610682493039
 30
0.0
 11
6830.251682493363
 21
-4878.644921403855
 31
0.0
  0
LINE
  5
5AA
  8
TFAS-0009
  6
CONTINUOUS
 62
     7
 10
6832.011121024416
 20
-4876.249086769741
 30
0.0
 11
6829.890086770059
 21
-4878.370121024097
 31
0.0
  0
LINE
  5
5AB
  8
TFAS-0009
  6
CONTINUOUS
 62
     7
 10
6831.638567446784
 20
-4875.9852442443
 30
0.0
 11
6829.626244244619
 21
-4877.997567446465
 31
0.0
  0
LINE
  5
5AC
  8
TFAS-0009
  6
CONTINUOUS
 62
     7
 10
6831.14938786932
 20
-4875.838027718691
 30
0.0
 11
6829.479027718993
 21
-4877.508387869017
 31
0.0
  0
LINE
  5
5AD
  8
TFAS-0009
  6
CONTINUOUS
 62
     7
 10
6830.420498079846
 20
-4875.930521405109
 30
0.0
 11
6829.571521405433
 21
-4876.779498079526
 31
0.0
  0
CIRCLE
  5
5AE
  8
TFAS-0009
  6
CONTINUOUS
 62
     7
 10
6823.288022937624
 20
-4874.607022937289
 30
0.0
 40
1.5
  0
LINE
  5
5AF
  8
TFAS-0009
  6
CONTINUOUS
 62
     7
 10
6824.768317244867
 20
-4874.364682755046
 30
0.0
 11
6823.045682755377
 21
-4876.087317244536
 31
0.0
  0
LINE
  5
5B0
  8
TFAS-0009
  6
CONTINUOUS
 62
     7
 10
6824.331121024248
 20
-4873.529086769536
 30
0.0
 11
6822.210086769892
 21
-4875.650121023892
 31
0.0
  0
LINE
  5
5B1
  8
TFAS-0009
  6
CONTINUOUS
 62
     7
 10
6823.469387869152
 20
-4873.118027718486
 30
0.0
 11
6821.799027718826
 21
-4874.788387868813
 31
0.0
  0
LINE
  5
5B2
  8
TFAS-0009
  6
CONTINUOUS
 62
     7
 10
6824.721889913515
 20
-4875.047506189475
 30
0.0
 11
6823.728506189831
 21
-4876.040889913155
 31
0.0
  0
LINE
  5
5B3
  8
TFAS-0009
  6
CONTINUOUS
 62
     7
 10
6824.768317244867
 20
-4874.364682755046
 30
0.0
 11
6823.045682755377
 21
-4876.087317244536
 31
0.0
  0
LINE
  5
5B4
  8
TFAS-0009
  6
CONTINUOUS
 62
     7
 10
6824.605921404007
 20
-4873.890682492834
 30
0.0
 11
6822.571682493195
 21
-4875.92492140365
 31
0.0
  0
LINE
  5
5B5
  8
TFAS-0009
  6
CONTINUOUS
 62
     7
 10
6824.331121024248
 20
-4873.529086769536
 30
0.0
 11
6822.210086769892
 21
-4875.650121023892
 31
0.0
  0
LINE
  5
5B6
  8
TFAS-0009
  6
CONTINUOUS
 62
     7
 10
6823.958567446616
 20
-4873.265244244095
 30
0.0
 11
6821.946244244451
 21
-4875.27756744626
 31
0.0
  0
LINE
  5
5B7
  8
TFAS-0009
  6
CONTINUOUS
 62
     7
 10
6823.469387869152
 20
-4873.118027718486
 30
0.0
 11
6821.799027718826
 21
-4874.788387868813
 31
0.0
  0
LINE
  5
5B8
  8
TFAS-0009
  6
CONTINUOUS
 62
     7
 10
6822.740498079678
 20
-4873.210521404904
 30
0.0
 11
6821.891521405265
 21
-4874.059498079321
 31
0.0
  0
CIRCLE
  5
5B9
  8
TFAS-0009
  6
CONTINUOUS
 62
     7
 10
6817.688022937531
 20
-4871.247022937419
 30
0.0
 40
1.5
  0
LINE
  5
5BA
  8
TFAS-0009
  6
CONTINUOUS
 62
     7
 10
6819.168317244774
 20
-4871.004682755176
 30
0.0
 11
6817.445682755284
 21
-4872.727317244667
 31
0.0
  0
LINE
  5
5BB
  8
TFAS-0009
  6
CONTINUOUS
 62
     7
 10
6818.731121024155
 20
-4870.169086769666
 30
0.0
 11
6816.610086769799
 21
-4872.290121024022
 31
0.0
  0
LINE
  5
5BC
  8
TFAS-0009
  6
CONTINUOUS
 62
     7
 10
6817.869387869059
 20
-4869.758027718616
 30
0.0
 11
6816.199027718732
 21
-4871.428387868943
 31
0.0
  0
LINE
  5
5BD
  8
TFAS-0009
  6
CONTINUOUS
 62
     7
 10
6819.121889913422
 20
-4871.687506189605
 30
0.0
 11
6818.128506189738
 21
-4872.680889913286
 31
0.0
  0
LINE
  5
5BE
  8
TFAS-0009
  6
CONTINUOUS
 62
     7
 10
6819.168317244774
 20
-4871.004682755176
 30
0.0
 11
6817.445682755284
 21
-4872.727317244667
 31
0.0
  0
LINE
  5
5BF
  8
TFAS-0009
  6
CONTINUOUS
 62
     7
 10
6819.005921403914
 20
-4870.530682492965
 30
0.0
 11
6816.971682493102
 21
-4872.56492140378
 31
0.0
  0
LINE
  5
5C0
  8
TFAS-0009
  6
CONTINUOUS
 62
     7
 10
6818.731121024155
 20
-4870.169086769666
 30
0.0
 11
6816.610086769799
 21
-4872.290121024022
 31
0.0
  0
LINE
  5
5C1
  8
TFAS-0009
  6
CONTINUOUS
 62
     7
 10
6818.358567446523
 20
-4869.905244244225
 30
0.0
 11
6816.346244244358
 21
-4871.91756744639
 31
0.0
  0
LINE
  5
5C2
  8
TFAS-0009
  6
CONTINUOUS
 62
     7
 10
6817.869387869059
 20
-4869.758027718616
 30
0.0
 11
6816.199027718732
 21
-4871.428387868943
 31
0.0
  0
LINE
  5
5C3
  8
TFAS-0009
  6
CONTINUOUS
 62
     7
 10
6817.140498079585
 20
-4869.850521405035
 30
0.0
 11
6816.291521405172
 21
-4870.699498079452
 31
0.0
  0
CIRCLE
  5
5C4
  8
TFAS-0009
  6
CONTINUOUS
 62
     7
 10
6811.448022937773
 20
-4867.247022937419
 30
0.0
 40
1.5
  0
LINE
  5
5C5
  8
TFAS-0009
  6
CONTINUOUS
 62
     7
 10
6812.928317245016
 20
-4867.004682755176
 30
0.0
 11
6811.205682755526
 21
-4868.727317244667
 31
0.0
  0
LINE
  5
5C6
  8
TFAS-0009
  6
CONTINUOUS
 62
     7
 10
6812.491121024397
 20
-4866.169086769666
 30
0.0
 11
6810.370086770041
 21
-4868.290121024022
 31
0.0
  0
LINE
  5
5C7
  8
TFAS-0009
  6
CONTINUOUS
 62
     7
 10
6811.629387869301
 20
-4865.758027718616
 30
0.0
 11
6809.959027718975
 21
-4867.428387868943
 31
0.0
  0
LINE
  5
5C8
  8
TFAS-0009
  6
CONTINUOUS
 62
     7
 10
6812.881889913664
 20
-4867.687506189605
 30
0.0
 11
6811.88850618998
 21
-4868.680889913286
 31
0.0
  0
LINE
  5
5C9
  8
TFAS-0009
  6
CONTINUOUS
 62
     7
 10
6812.928317245016
 20
-4867.004682755176
 30
0.0
 11
6811.205682755526
 21
-4868.727317244667
 31
0.0
  0
LINE
  5
5CA
  8
TFAS-0009
  6
CONTINUOUS
 62
     7
 10
6812.765921404156
 20
-4866.530682492965
 30
0.0
 11
6810.731682493344
 21
-4868.56492140378
 31
0.0
  0
LINE
  5
5CB
  8
TFAS-0009
  6
CONTINUOUS
 62
     7
 10
6812.491121024397
 20
-4866.169086769666
 30
0.0
 11
6810.370086770041
 21
-4868.290121024022
 31
0.0
  0
LINE
  5
5CC
  8
TFAS-0009
  6
CONTINUOUS
 62
     7
 10
6812.118567446765
 20
-4865.905244244225
 30
0.0
 11
6810.1062442446
 21
-4867.91756744639
 31
0.0
  0
LINE
  5
5CD
  8
TFAS-0009
  6
CONTINUOUS
 62
     7
 10
6811.629387869301
 20
-4865.758027718616
 30
0.0
 11
6809.959027718975
 21
-4867.428387868943
 31
0.0
  0
LINE
  5
5CE
  8
TFAS-0009
  6
CONTINUOUS
 62
     7
 10
6810.900498079827
 20
-4865.850521405035
 30
0.0
 11
6810.051521405414
 21
-4866.699498079452
 31
0.0
  0
CIRCLE
  5
5CF
  8
TFAS-0009
  6
CONTINUOUS
 62
     7
 10
6807.608022937457
 20
-4861.007022937196
 30
0.0
 40
1.5
  0
LINE
  5
5D0
  8
TFAS-0009
  6
CONTINUOUS
 62
     7
 10
6809.088317244699
 20
-4860.764682754952
 30
0.0
 11
6807.365682755209
 21
-4862.487317244443
 31
0.0
  0
LINE
  5
5D1
  8
TFAS-0009
  6
CONTINUOUS
 62
     7
 10
6808.651121024081
 20
-4859.929086769443
 30
0.0
 11
6806.530086769724
 21
-4862.050121023799
 31
0.0
  0
LINE
  5
5D2
  8
TFAS-0009
  6
CONTINUOUS
 62
     7
 10
6807.789387868985
 20
-4859.518027718393
 30
0.0
 11
6806.119027718658
 21
-4861.188387868719
 31
0.0
  0
LINE
  5
5D3
  8
TFAS-0009
  6
CONTINUOUS
 62
     7
 10
6809.041889913347
 20
-4861.447506189382
 30
0.0
 11
6808.048506189663
 21
-4862.440889913062
 31
0.0
  0
LINE
  5
5D4
  8
TFAS-0009
  6
CONTINUOUS
 62
     7
 10
6809.088317244699
 20
-4860.764682754952
 30
0.0
 11
6807.365682755209
 21
-4862.487317244443
 31
0.0
  0
LINE
  5
5D5
  8
TFAS-0009
  6
CONTINUOUS
 62
     7
 10
6808.925921403839
 20
-4860.290682492741
 30
0.0
 11
6806.891682493027
 21
-4862.324921403557
 31
0.0
  0
LINE
  5
5D6
  8
TFAS-0009
  6
CONTINUOUS
 62
     7
 10
6808.651121024081
 20
-4859.929086769443
 30
0.0
 11
6806.530086769724
 21
-4862.050121023799
 31
0.0
  0
LINE
  5
5D7
  8
TFAS-0009
  6
CONTINUOUS
 62
     7
 10
6808.278567446449
 20
-4859.665244244002
 30
0.0
 11
6806.266244244283
 21
-4861.677567446167
 31
0.0
  0
LINE
  5
5D8
  8
TFAS-0009
  6
CONTINUOUS
 62
     7
 10
6807.789387868985
 20
-4859.518027718393
 30
0.0
 11
6806.119027718658
 21
-4861.188387868719
 31
0.0
  0
LINE
  5
5D9
  8
TFAS-0009
  6
CONTINUOUS
 62
     7
 10
6807.060498079511
 20
-4859.610521404811
 30
0.0
 11
6806.211521405097
 21
-4860.459498079228
 31
0.0
  0
CIRCLE
  5
5DA
  8
TFAS-0009
  6
CONTINUOUS
 62
     7
 10
6803.928022937755
 20
-4854.927022937587
 30
0.0
 40
1.5
  0
LINE
  5
5DB
  8
TFAS-0009
  6
CONTINUOUS
 62
     7
 10
6805.408317244997
 20
-4854.684682755344
 30
0.0
 11
6803.685682755508
 21
-4856.407317244834
 31
0.0
  0
LINE
  5
5DC
  8
TFAS-0009
  6
CONTINUOUS
 62
     7
 10
6804.971121024379
 20
-4853.849086769834
 30
0.0
 11
6802.850086770022
 21
-4855.97012102419
 31
0.0
  0
LINE
  5
5DD
  8
TFAS-0009
  6
CONTINUOUS
 62
     7
 10
6804.109387869283
 20
-4853.438027718784
 30
0.0
 11
6802.439027718956
 21
-4855.108387869111
 31
0.0
  0
LINE
  5
5DE
  8
TFAS-0009
  6
CONTINUOUS
 62
     7
 10
6805.361889913645
 20
-4855.367506189773
 30
0.0
 11
6804.368506189961
 21
-4856.360889913453
 31
0.0
  0
LINE
  5
5DF
  8
TFAS-0009
  6
CONTINUOUS
 62
     7
 10
6805.408317244997
 20
-4854.684682755344
 30
0.0
 11
6803.685682755508
 21
-4856.407317244834
 31
0.0
  0
LINE
  5
5E0
  8
TFAS-0009
  6
CONTINUOUS
 62
     7
 10
6805.245921404137
 20
-4854.210682493132
 30
0.0
 11
6803.211682493325
 21
-4856.244921403948
 31
0.0
  0
LINE
  5
5E1
  8
TFAS-0009
  6
CONTINUOUS
 62
     7
 10
6804.971121024379
 20
-4853.849086769834
 30
0.0
 11
6802.850086770022
 21
-4855.97012102419
 31
0.0
  0
LINE
  5
5E2
  8
TFAS-0009
  6
CONTINUOUS
 62
     7
 10
6804.598567446747
 20
-4853.585244244393
 30
0.0
 11
6802.586244244581
 21
-4855.597567446558
 31
0.0
  0
LINE
  5
5E3
  8
TFAS-0009
  6
CONTINUOUS
 62
     7
 10
6804.109387869283
 20
-4853.438027718784
 30
0.0
 11
6802.439027718956
 21
-4855.108387869111
 31
0.0
  0
LINE
  5
5E4
  8
TFAS-0009
  6
CONTINUOUS
 62
     7
 10
6803.380498079809
 20
-4853.530521405202
 30
0.0
 11
6802.531521405395
 21
-4854.379498079619
 31
0.0
  0
CIRCLE
  5
5E5
  8
TFAS-0009
  6
CONTINUOUS
 62
     7
 10
6801.688022937531
 20
-4846.607022937289
 30
0.0
 40
1.5
  0
LINE
  5
5E6
  8
TFAS-0009
  6
CONTINUOUS
 62
     7
 10
6803.168317244774
 20
-4846.364682755046
 30
0.0
 11
6801.445682755284
 21
-4848.087317244536
 31
0.0
  0
LINE
  5
5E7
  8
TFAS-0009
  6
CONTINUOUS
 62
     7
 10
6802.731121024155
 20
-4845.529086769536
 30
0.0
 11
6800.610086769799
 21
-4847.650121023892
 31
0.0
  0
LINE
  5
5E8
  8
TFAS-0009
  6
CONTINUOUS
 62
     7
 10
6801.869387869059
 20
-4845.118027718486
 30
0.0
 11
6800.199027718732
 21
-4846.788387868813
 31
0.0
  0
LINE
  5
5E9
  8
TFAS-0009
  6
CONTINUOUS
 62
     7
 10
6803.121889913422
 20
-4847.047506189475
 30
0.0
 11
6802.128506189738
 21
-4848.040889913155
 31
0.0
  0
LINE
  5
5EA
  8
TFAS-0009
  6
CONTINUOUS
 62
     7
 10
6803.168317244774
 20
-4846.364682755046
 30
0.0
 11
6801.445682755284
 21
-4848.087317244536
 31
0.0
  0
LINE
  5
5EB
  8
TFAS-0009
  6
CONTINUOUS
 62
     7
 10
6803.005921403914
 20
-4845.890682492834
 30
0.0
 11
6800.971682493102
 21
-4847.92492140365
 31
0.0
  0
LINE
  5
5EC
  8
TFAS-0009
  6
CONTINUOUS
 62
     7
 10
6802.731121024155
 20
-4845.529086769536
 30
0.0
 11
6800.610086769799
 21
-4847.650121023892
 31
0.0
  0
LINE
  5
5ED
  8
TFAS-0009
  6
CONTINUOUS
 62
     7
 10
6802.358567446523
 20
-4845.265244244095
 30
0.0
 11
6800.346244244358
 21
-4847.27756744626
 31
0.0
  0
LINE
  5
5EE
  8
TFAS-0009
  6
CONTINUOUS
 62
     7
 10
6801.869387869059
 20
-4845.118027718486
 30
0.0
 11
6800.199027718732
 21
-4846.788387868813
 31
0.0
  0
LINE
  5
5EF
  8
TFAS-0009
  6
CONTINUOUS
 62
     7
 10
6801.140498079585
 20
-4845.210521404904
 30
0.0
 11
6800.291521405172
 21
-4846.059498079321
 31
0.0
  0
CIRCLE
  5
5F0
  8
TFAS-0009
  6
CONTINUOUS
 62
     7
 10
6801.368022937699
 20
-4839.407022937568
 30
0.0
 40
1.5
  0
LINE
  5
5F1
  8
TFAS-0009
  6
CONTINUOUS
 62
     7
 10
6802.848317244941
 20
-4839.164682755325
 30
0.0
 11
6801.125682755452
 21
-4840.887317244816
 31
0.0
  0
LINE
  5
5F2
  8
TFAS-0009
  6
CONTINUOUS
 62
     7
 10
6802.411121024323
 20
-4838.329086769815
 30
0.0
 11
6800.290086769966
 21
-4840.450121024171
 31
0.0
  0
LINE
  5
5F3
  8
TFAS-0009
  6
CONTINUOUS
 62
     7
 10
6801.549387869227
 20
-4837.918027718765
 30
0.0
 11
6799.8790277189
 21
-4839.588387869092
 31
0.0
  0
LINE
  5
5F4
  8
TFAS-0009
  6
CONTINUOUS
 62
     7
 10
6802.80188991359
 20
-4839.847506189754
 30
0.0
 11
6801.808506189906
 21
-4840.840889913435
 31
0.0
  0
LINE
  5
5F5
  8
TFAS-0009
  6
CONTINUOUS
 62
     7
 10
6802.848317244941
 20
-4839.164682755325
 30
0.0
 11
6801.125682755452
 21
-4840.887317244816
 31
0.0
  0
LINE
  5
5F6
  8
TFAS-0009
  6
CONTINUOUS
 62
     7
 10
6802.685921404081
 20
-4838.690682493114
 30
0.0
 11
6800.65168249327
 21
-4840.724921403929
 31
0.0
  0
LINE
  5
5F7
  8
TFAS-0009
  6
CONTINUOUS
 62
     7
 10
6802.411121024323
 20
-4838.329086769815
 30
0.0
 11
6800.290086769966
 21
-4840.450121024171
 31
0.0
  0
LINE
  5
5F8
  8
TFAS-0009
  6
CONTINUOUS
 62
     7
 10
6802.038567446691
 20
-4838.065244244374
 30
0.0
 11
6800.026244244526
 21
-4840.077567446539
 31
0.0
  0
LINE
  5
5F9
  8
TFAS-0009
  6
CONTINUOUS
 62
     7
 10
6801.549387869227
 20
-4837.918027718765
 30
0.0
 11
6799.8790277189
 21
-4839.588387869092
 31
0.0
  0
LINE
  5
5FA
  8
TFAS-0009
  6
CONTINUOUS
 62
     7
 10
6800.820498079753
 20
-4838.010521405184
 30
0.0
 11
6799.971521405339
 21
-4838.859498079601
 31
0.0
  0
CIRCLE
  5
5FB
  8
TFAS-0009
  6
CONTINUOUS
 62
     7
 10
6801.84802293768
 20
-4833.007022937196
 30
0.0
 40
1.5
  0
LINE
  5
5FC
  8
TFAS-0009
  6
CONTINUOUS
 62
     7
 10
6803.328317244923
 20
-4832.764682754952
 30
0.0
 11
6801.605682755433
 21
-4834.487317244443
 31
0.0
  0
LINE
  5
5FD
  8
TFAS-0009
  6
CONTINUOUS
 62
     7
 10
6802.891121024304
 20
-4831.929086769443
 30
0.0
 11
6800.770086769948
 21
-4834.050121023799
 31
0.0
  0
LINE
  5
5FE
  8
TFAS-0009
  6
CONTINUOUS
 62
     7
 10
6802.029387869208
 20
-4831.518027718393
 30
0.0
 11
6800.359027718881
 21
-4833.188387868719
 31
0.0
  0
LINE
  5
5FF
  8
TFAS-0009
  6
CONTINUOUS
 62
     7
 10
6803.281889913571
 20
-4833.447506189382
 30
0.0
 11
6802.288506189887
 21
-4834.440889913062
 31
0.0
  0
LINE
  5
600
  8
TFAS-0009
  6
CONTINUOUS
 62
     7
 10
6803.328317244923
 20
-4832.764682754952
 30
0.0
 11
6801.605682755433
 21
-4834.487317244443
 31
0.0
  0
LINE
  5
601
  8
TFAS-0009
  6
CONTINUOUS
 62
     7
 10
6803.165921404063
 20
-4832.290682492741
 30
0.0
 11
6801.131682493251
 21
-4834.324921403557
 31
0.0
  0
LINE
  5
602
  8
TFAS-0009
  6
CONTINUOUS
 62
     7
 10
6802.891121024304
 20
-4831.929086769443
 30
0.0
 11
6800.770086769948
 21
-4834.050121023799
 31
0.0
  0
LINE
  5
603
  8
TFAS-0009
  6
CONTINUOUS
 62
     7
 10
6802.518567446672
 20
-4831.665244244002
 30
0.0
 11
6800.506244244507
 21
-4833.677567446167
 31
0.0
  0
LINE
  5
604
  8
TFAS-0009
  6
CONTINUOUS
 62
     7
 10
6802.029387869208
 20
-4831.518027718393
 30
0.0
 11
6800.359027718881
 21
-4833.188387868719
 31
0.0
  0
LINE
  5
605
  8
TFAS-0009
  6
CONTINUOUS
 62
     7
 10
6801.300498079734
 20
-4831.610521404811
 30
0.0
 11
6800.451521405321
 21
-4832.459498079228
 31
0.0
  0
CIRCLE
  5
606
  8
TFAS-0009
  6
CONTINUOUS
 62
     7
 10
6804.248022937587
 20
-4825.967022937159
 30
0.0
 40
1.5
  0
LINE
  5
607
  8
TFAS-0009
  6
CONTINUOUS
 62
     7
 10
6805.72831724483
 20
-4825.724682754915
 30
0.0
 11
6804.00568275534
 21
-4827.447317244406
 31
0.0
  0
LINE
  5
608
  8
TFAS-0009
  6
CONTINUOUS
 62
     7
 10
6805.291121024211
 20
-4824.889086769405
 30
0.0
 11
6803.170086769855
 21
-4827.010121023762
 31
0.0
  0
LINE
  5
609
  8
TFAS-0009
  6
CONTINUOUS
 62
     7
 10
6804.429387869115
 20
-4824.478027718355
 30
0.0
 11
6802.759027718788
 21
-4826.148387868682
 31
0.0
  0
LINE
  5
60A
  8
TFAS-0009
  6
CONTINUOUS
 62
     7
 10
6805.681889913478
 20
-4826.407506189345
 30
0.0
 11
6804.688506189794
 21
-4827.400889913025
 31
0.0
  0
LINE
  5
60B
  8
TFAS-0009
  6
CONTINUOUS
 62
     7
 10
6805.72831724483
 20
-4825.724682754915
 30
0.0
 11
6804.00568275534
 21
-4827.447317244406
 31
0.0
  0
LINE
  5
60C
  8
TFAS-0009
  6
CONTINUOUS
 62
     7
 10
6805.56592140397
 20
-4825.250682492704
 30
0.0
 11
6803.531682493158
 21
-4827.28492140352
 31
0.0
  0
LINE
  5
60D
  8
TFAS-0009
  6
CONTINUOUS
 62
     7
 10
6805.291121024211
 20
-4824.889086769405
 30
0.0
 11
6803.170086769855
 21
-4827.010121023762
 31
0.0
  0
LINE
  5
60E
  8
TFAS-0009
  6
CONTINUOUS
 62
     7
 10
6804.918567446579
 20
-4824.625244243965
 30
0.0
 11
6802.906244244414
 21
-4826.63756744613
 31
0.0
  0
LINE
  5
60F
  8
TFAS-0009
  6
CONTINUOUS
 62
     7
 10
6804.429387869115
 20
-4824.478027718355
 30
0.0
 11
6802.759027718788
 21
-4826.148387868682
 31
0.0
  0
LINE
  5
610
  8
TFAS-0009
  6
CONTINUOUS
 62
     7
 10
6803.700498079641
 20
-4824.570521404774
 30
0.0
 11
6802.851521405228
 21
-4825.419498079191
 31
0.0
  0
CIRCLE
  5
611
  8
TFAS-0009
  6
CONTINUOUS
 62
     7
 10
6810.168022937512
 20
-4818.927022937587
 30
0.0
 40
1.5
  0
LINE
  5
612
  8
TFAS-0009
  6
CONTINUOUS
 62
     7
 10
6811.648317244755
 20
-4818.684682755344
 30
0.0
 11
6809.925682755265
 21
-4820.407317244834
 31
0.0
  0
LINE
  5
613
  8
TFAS-0009
  6
CONTINUOUS
 62
     7
 10
6811.211121024136
 20
-4817.849086769834
 30
0.0
 11
6809.09008676978
 21
-4819.97012102419
 31
0.0
  0
LINE
  5
614
  8
TFAS-0009
  6
CONTINUOUS
 62
     7
 10
6810.349387869041
 20
-4817.438027718784
 30
0.0
 11
6808.679027718714
 21
-4819.108387869111
 31
0.0
  0
LINE
  5
615
  8
TFAS-0009
  6
CONTINUOUS
 62
     7
 10
6811.601889913403
 20
-4819.367506189773
 30
0.0
 11
6810.608506189719
 21
-4820.360889913453
 31
0.0
  0
LINE
  5
616
  8
TFAS-0009
  6
CONTINUOUS
 62
     7
 10
6811.648317244755
 20
-4818.684682755344
 30
0.0
 11
6809.925682755265
 21
-4820.407317244834
 31
0.0
  0
LINE
  5
617
  8
TFAS-0009
  6
CONTINUOUS
 62
     7
 10
6811.485921403895
 20
-4818.210682493132
 30
0.0
 11
6809.451682493083
 21
-4820.244921403948
 31
0.0
  0
LINE
  5
618
  8
TFAS-0009
  6
CONTINUOUS
 62
     7
 10
6811.211121024136
 20
-4817.849086769834
 30
0.0
 11
6809.09008676978
 21
-4819.97012102419
 31
0.0
  0
LINE
  5
619
  8
TFAS-0009
  6
CONTINUOUS
 62
     7
 10
6810.838567446504
 20
-4817.585244244393
 30
0.0
 11
6808.826244244339
 21
-4819.597567446558
 31
0.0
  0
LINE
  5
61A
  8
TFAS-0009
  6
CONTINUOUS
 62
     7
 10
6810.349387869041
 20
-4817.438027718784
 30
0.0
 11
6808.679027718714
 21
-4819.108387869111
 31
0.0
  0
LINE
  5
61B
  8
TFAS-0009
  6
CONTINUOUS
 62
     7
 10
6809.620498079566
 20
-4817.530521405202
 30
0.0
 11
6808.771521405153
 21
-4818.379498079619
 31
0.0
  0
CIRCLE
  5
61C
  8
TFAS-0009
  6
CONTINUOUS
 62
     7
 10
6816.088022937438
 20
-4812.687022937364
 30
0.0
 40
1.5
  0
LINE
  5
61D
  8
TFAS-0009
  6
CONTINUOUS
 62
     7
 10
6817.568317244681
 20
-4812.44468275512
 30
0.0
 11
6815.845682755191
 21
-4814.167317244611
 31
0.0
  0
LINE
  5
61E
  8
TFAS-0009
  6
CONTINUOUS
 62
     7
 10
6817.131121024062
 20
-4811.60908676961
 30
0.0
 11
6815.010086769706
 21
-4813.730121023967
 31
0.0
  0
LINE
  5
61F
  8
TFAS-0009
  6
CONTINUOUS
 62
     7
 10
6816.269387868966
 20
-4811.19802771856
 30
0.0
 11
6814.599027718639
 21
-4812.868387868887
 31
0.0
  0
LINE
  5
620
  8
TFAS-0009
  6
CONTINUOUS
 62
     7
 10
6817.521889913329
 20
-4813.127506189549
 30
0.0
 11
6816.528506189645
 21
-4814.12088991323
 31
0.0
  0
LINE
  5
621
  8
TFAS-0009
  6
CONTINUOUS
 62
     7
 10
6817.568317244681
 20
-4812.44468275512
 30
0.0
 11
6815.845682755191
 21
-4814.167317244611
 31
0.0
  0
LINE
  5
622
  8
TFAS-0009
  6
CONTINUOUS
 62
     7
 10
6817.405921403821
 20
-4811.970682492909
 30
0.0
 11
6815.371682493009
 21
-4814.004921403724
 31
0.0
  0
LINE
  5
623
  8
TFAS-0009
  6
CONTINUOUS
 62
     7
 10
6817.131121024062
 20
-4811.60908676961
 30
0.0
 11
6815.010086769706
 21
-4813.730121023967
 31
0.0
  0
LINE
  5
624
  8
TFAS-0009
  6
CONTINUOUS
 62
     7
 10
6816.75856744643
 20
-4811.345244244169
 30
0.0
 11
6814.746244244265
 21
-4813.357567446335
 31
0.0
  0
LINE
  5
625
  8
TFAS-0009
  6
CONTINUOUS
 62
     7
 10
6816.269387868966
 20
-4811.19802771856
 30
0.0
 11
6814.599027718639
 21
-4812.868387868887
 31
0.0
  0
LINE
  5
626
  8
TFAS-0009
  6
CONTINUOUS
 62
     7
 10
6815.540498079492
 20
-4811.290521404979
 30
0.0
 11
6814.691521405079
 21
-4812.139498079396
 31
0.0
  0
CIRCLE
  5
627
  8
TFAS-0009
  6
CONTINUOUS
 62
     7
 10
6822.648022937959
 20
-4810.767022937438
 30
0.0
 40
1.5
  0
LINE
  5
628
  8
TFAS-0009
  6
CONTINUOUS
 62
     7
 10
6824.128317245202
 20
-4810.524682755195
 30
0.0
 11
6822.405682755712
 21
-4812.247317244685
 31
0.0
  0
LINE
  5
629
  8
TFAS-0009
  6
CONTINUOUS
 62
     7
 10
6823.691121024583
 20
-4809.689086769685
 30
0.0
 11
6821.570086770227
 21
-4811.810121024041
 31
0.0
  0
LINE
  5
62A
  8
TFAS-0009
  6
CONTINUOUS
 62
     7
 10
6822.829387869488
 20
-4809.278027718635
 30
0.0
 11
6821.159027719161
 21
-4810.948387868962
 31
0.0
  0
LINE
  5
62B
  8
TFAS-0009
  6
CONTINUOUS
 62
     7
 10
6824.08188991385
 20
-4811.207506189624
 30
0.0
 11
6823.088506190166
 21
-4812.200889913304
 31
0.0
  0
LINE
  5
62C
  8
TFAS-0009
  6
CONTINUOUS
 62
     7
 10
6824.128317245202
 20
-4810.524682755195
 30
0.0
 11
6822.405682755712
 21
-4812.247317244685
 31
0.0
  0
LINE
  5
62D
  8
TFAS-0009
  6
CONTINUOUS
 62
     7
 10
6823.965921404342
 20
-4810.050682492983
 30
0.0
 11
6821.93168249353
 21
-4812.084921403799
 31
0.0
  0
LINE
  5
62E
  8
TFAS-0009
  6
CONTINUOUS
 62
     7
 10
6823.691121024583
 20
-4809.689086769685
 30
0.0
 11
6821.570086770227
 21
-4811.810121024041
 31
0.0
  0
LINE
  5
62F
  8
TFAS-0009
  6
CONTINUOUS
 62
     7
 10
6823.318567446951
 20
-4809.425244244244
 30
0.0
 11
6821.306244244786
 21
-4811.437567446409
 31
0.0
  0
LINE
  5
630
  8
TFAS-0009
  6
CONTINUOUS
 62
     7
 10
6822.829387869488
 20
-4809.278027718635
 30
0.0
 11
6821.159027719161
 21
-4810.948387868962
 31
0.0
  0
LINE
  5
631
  8
TFAS-0009
  6
CONTINUOUS
 62
     7
 10
6822.100498080013
 20
-4809.370521405053
 30
0.0
 11
6821.2515214056
 21
-4810.21949807947
 31
0.0
  0
CIRCLE
  5
632
  8
TFAS-0009
  6
CONTINUOUS
 62
     7
 10
6829.027000000235
 20
-4813.466000000015
 30
0.0
 40
1.5
  0
LINE
  5
633
  8
TFAS-0009
  6
CONTINUOUS
 62
     7
 10
6830.507294307477
 20
-4813.223659817771
 30
0.0
 11
6828.784659817988
 21
-4814.946294307262
 31
0.0
  0
LINE
  5
634
  8
TFAS-0009
  6
CONTINUOUS
 62
     7
 10
6830.070098086859
 20
-4812.388063832262
 30
0.0
 11
6827.949063832502
 21
-4814.509098086618
 31
0.0
  0
LINE
  5
635
  8
TFAS-0009
  6
CONTINUOUS
 62
     7
 10
6829.208364931763
 20
-4811.977004781212
 30
0.0
 11
6827.538004781436
 21
-4813.647364931539
 31
0.0
  0
LINE
  5
636
  8
TFAS-0009
  6
CONTINUOUS
 62
     7
 10
6830.460866976126
 20
-4813.906483252201
 30
0.0
 11
6829.467483252442
 21
-4814.899866975881
 31
0.0
  0
LINE
  5
637
  8
TFAS-0009
  6
CONTINUOUS
 62
     7
 10
6830.507294307477
 20
-4813.223659817771
 30
0.0
 11
6828.784659817988
 21
-4814.946294307262
 31
0.0
  0
LINE
  5
638
  8
TFAS-0009
  6
CONTINUOUS
 62
     7
 10
6830.344898466617
 20
-4812.74965955556
 30
0.0
 11
6828.310659555806
 21
-4814.783898466376
 31
0.0
  0
LINE
  5
639
  8
TFAS-0009
  6
CONTINUOUS
 62
     7
 10
6830.070098086859
 20
-4812.388063832262
 30
0.0
 11
6827.949063832502
 21
-4814.509098086618
 31
0.0
  0
LINE
  5
63A
  8
TFAS-0009
  6
CONTINUOUS
 62
     7
 10
6829.697544509227
 20
-4812.124221306821
 30
0.0
 11
6827.685221307062
 21
-4814.136544508986
 31
0.0
  0
LINE
  5
63B
  8
TFAS-0009
  6
CONTINUOUS
 62
     7
 10
6829.208364931763
 20
-4811.977004781212
 30
0.0
 11
6827.538004781436
 21
-4813.647364931539
 31
0.0
  0
LINE
  5
63C
  8
TFAS-0009
  6
CONTINUOUS
 62
     7
 10
6828.479475142289
 20
-4812.06949846763
 30
0.0
 11
6827.630498467875
 21
-4812.918475142047
 31
0.0
  0
CIRCLE
  5
63D
  8
TFAS-0009
  6
CONTINUOUS
 62
     7
 10
6838.147000000346
 20
-4812.026000000071
 30
0.0
 40
1.5
  0
LINE
  5
63E
  8
TFAS-0009
  6
CONTINUOUS
 62
     7
 10
6839.627294307589
 20
-4811.783659817827
 30
0.0
 11
6837.904659818099
 21
-4813.506294307318
 31
0.0
  0
LINE
  5
63F
  8
TFAS-0009
  6
CONTINUOUS
 62
     7
 10
6839.19009808697
 20
-4810.948063832318
 30
0.0
 11
6837.069063832614
 21
-4813.069098086674
 31
0.0
  0
LINE
  5
640
  8
TFAS-0009
  6
CONTINUOUS
 62
     7
 10
6838.328364931875
 20
-4810.537004781268
 30
0.0
 11
6836.658004781548
 21
-4812.207364931594
 31
0.0
  0
LINE
  5
641
  8
TFAS-0009
  6
CONTINUOUS
 62
     7
 10
6839.580866976237
 20
-4812.466483252257
 30
0.0
 11
6838.587483252553
 21
-4813.459866975937
 31
0.0
  0
LINE
  5
642
  8
TFAS-0009
  6
CONTINUOUS
 62
     7
 10
6839.627294307589
 20
-4811.783659817827
 30
0.0
 11
6837.904659818099
 21
-4813.506294307318
 31
0.0
  0
LINE
  5
643
  8
TFAS-0009
  6
CONTINUOUS
 62
     7
 10
6839.464898466729
 20
-4811.309659555616
 30
0.0
 11
6837.430659555917
 21
-4813.343898466432
 31
0.0
  0
LINE
  5
644
  8
TFAS-0009
  6
CONTINUOUS
 62
     7
 10
6839.19009808697
 20
-4810.948063832318
 30
0.0
 11
6837.069063832614
 21
-4813.069098086674
 31
0.0
  0
LINE
  5
645
  8
TFAS-0009
  6
CONTINUOUS
 62
     7
 10
6838.817544509338
 20
-4810.684221306877
 30
0.0
 11
6836.805221307173
 21
-4812.696544509042
 31
0.0
  0
LINE
  5
646
  8
TFAS-0009
  6
CONTINUOUS
 62
     7
 10
6838.328364931875
 20
-4810.537004781268
 30
0.0
 11
6836.658004781548
 21
-4812.207364931594
 31
0.0
  0
LINE
  5
647
  8
TFAS-0009
  6
CONTINUOUS
 62
     7
 10
6837.5994751424
 20
-4810.629498467686
 30
0.0
 11
6836.750498467987
 21
-4811.478475142103
 31
0.0
  0
CIRCLE
  5
648
  8
TFAS-0009
  6
CONTINUOUS
 62
     7
 10
6845.027000000235
 20
-4812.345999999903
 30
0.0
 40
1.5
  0
LINE
  5
649
  8
TFAS-0009
  6
CONTINUOUS
 62
     7
 10
6846.507294307477
 20
-4812.10365981766
 30
0.0
 11
6844.784659817988
 21
-4813.82629430715
 31
0.0
  0
LINE
  5
64A
  8
TFAS-0009
  6
CONTINUOUS
 62
     7
 10
6846.070098086859
 20
-4811.26806383215
 30
0.0
 11
6843.949063832502
 21
-4813.389098086506
 31
0.0
  0
LINE
  5
64B
  8
TFAS-0009
  6
CONTINUOUS
 62
     7
 10
6845.208364931763
 20
-4810.8570047811
 30
0.0
 11
6843.538004781436
 21
-4812.527364931427
 31
0.0
  0
LINE
  5
64C
  8
TFAS-0009
  6
CONTINUOUS
 62
     7
 10
6846.460866976126
 20
-4812.786483252089
 30
0.0
 11
6845.467483252442
 21
-4813.779866975769
 31
0.0
  0
LINE
  5
64D
  8
TFAS-0009
  6
CONTINUOUS
 62
     7
 10
6846.507294307477
 20
-4812.10365981766
 30
0.0
 11
6844.784659817988
 21
-4813.82629430715
 31
0.0
  0
LINE
  5
64E
  8
TFAS-0009
  6
CONTINUOUS
 62
     7
 10
6846.344898466617
 20
-4811.629659555449
 30
0.0
 11
6844.310659555806
 21
-4813.663898466264
 31
0.0
  0
LINE
  5
64F
  8
TFAS-0009
  6
CONTINUOUS
 62
     7
 10
6846.070098086859
 20
-4811.26806383215
 30
0.0
 11
6843.949063832502
 21
-4813.389098086506
 31
0.0
  0
LINE
  5
650
  8
TFAS-0009
  6
CONTINUOUS
 62
     7
 10
6845.697544509227
 20
-4811.004221306709
 30
0.0
 11
6843.685221307062
 21
-4813.016544508874
 31
0.0
  0
LINE
  5
651
  8
TFAS-0009
  6
CONTINUOUS
 62
     7
 10
6845.208364931763
 20
-4810.8570047811
 30
0.0
 11
6843.538004781436
 21
-4812.527364931427
 31
0.0
  0
LINE
  5
652
  8
TFAS-0009
  6
CONTINUOUS
 62
     7
 10
6844.479475142289
 20
-4810.949498467518
 30
0.0
 11
6843.630498467875
 21
-4811.798475141935
 31
0.0
  0
CIRCLE
  5
653
  8
TFAS-0009
  6
CONTINUOUS
 62
     7
 10
6850.787000000011
 20
-4815.225999999791
 30
0.0
 40
1.5
  0
LINE
  5
654
  8
TFAS-0009
  6
CONTINUOUS
 62
     7
 10
6852.267294307254
 20
-4814.983659817548
 30
0.0
 11
6850.544659817764
 21
-4816.706294307039
 31
0.0
  0
LINE
  5
655
  8
TFAS-0009
  6
CONTINUOUS
 62
     7
 10
6851.830098086635
 20
-4814.148063832038
 30
0.0
 11
6849.709063832279
 21
-4816.269098086394
 31
0.0
  0
LINE
  5
656
  8
TFAS-0009
  6
CONTINUOUS
 62
     7
 10
6850.968364931539
 20
-4813.737004780988
 30
0.0
 11
6849.298004781213
 21
-4815.407364931315
 31
0.0
  0
LINE
  5
657
  8
TFAS-0009
  6
CONTINUOUS
 62
     7
 10
6852.220866975902
 20
-4815.666483251977
 30
0.0
 11
6851.227483252218
 21
-4816.659866975658
 31
0.0
  0
LINE
  5
658
  8
TFAS-0009
  6
CONTINUOUS
 62
     7
 10
6852.267294307254
 20
-4814.983659817548
 30
0.0
 11
6850.544659817764
 21
-4816.706294307039
 31
0.0
  0
LINE
  5
659
  8
TFAS-0009
  6
CONTINUOUS
 62
     7
 10
6852.104898466394
 20
-4814.509659555337
 30
0.0
 11
6850.070659555582
 21
-4816.543898466152
 31
0.0
  0
LINE
  5
65A
  8
TFAS-0009
  6
CONTINUOUS
 62
     7
 10
6851.830098086635
 20
-4814.148063832038
 30
0.0
 11
6849.709063832279
 21
-4816.269098086394
 31
0.0
  0
LINE
  5
65B
  8
TFAS-0009
  6
CONTINUOUS
 62
     7
 10
6851.457544509003
 20
-4813.884221306597
 30
0.0
 11
6849.445221306838
 21
-4815.896544508762
 31
0.0
  0
LINE
  5
65C
  8
TFAS-0009
  6
CONTINUOUS
 62
     7
 10
6850.968364931539
 20
-4813.737004780988
 30
0.0
 11
6849.298004781213
 21
-4815.407364931315
 31
0.0
  0
LINE
  5
65D
  8
TFAS-0009
  6
CONTINUOUS
 62
     7
 10
6850.239475142065
 20
-4813.829498467407
 30
0.0
 11
6849.390498467652
 21
-4814.678475141824
 31
0.0
  0
CIRCLE
  5
65E
  8
TFAS-0009
  6
CONTINUOUS
 62
     7
 10
6841.666999999899
 20
-4815.865999999922
 30
0.0
 40
1.5
  0
LINE
  5
65F
  8
TFAS-0009
  6
CONTINUOUS
 62
     7
 10
6843.147294307142
 20
-4815.623659817678
 30
0.0
 11
6841.424659817652
 21
-4817.346294307169
 31
0.0
  0
LINE
  5
660
  8
TFAS-0009
  6
CONTINUOUS
 62
     7
 10
6842.710098086523
 20
-4814.788063832169
 30
0.0
 11
6840.589063832167
 21
-4816.909098086525
 31
0.0
  0
LINE
  5
661
  8
TFAS-0009
  6
CONTINUOUS
 62
     7
 10
6841.848364931428
 20
-4814.377004781119
 30
0.0
 11
6840.178004781101
 21
-4816.047364931445
 31
0.0
  0
LINE
  5
662
  8
TFAS-0009
  6
CONTINUOUS
 62
     7
 10
6843.10086697579
 20
-4816.306483252108
 30
0.0
 11
6842.107483252106
 21
-4817.299866975788
 31
0.0
  0
LINE
  5
663
  8
TFAS-0009
  6
CONTINUOUS
 62
     7
 10
6843.147294307142
 20
-4815.623659817678
 30
0.0
 11
6841.424659817652
 21
-4817.346294307169
 31
0.0
  0
LINE
  5
664
  8
TFAS-0009
  6
CONTINUOUS
 62
     7
 10
6842.984898466282
 20
-4815.149659555467
 30
0.0
 11
6840.95065955547
 21
-4817.183898466283
 31
0.0
  0
LINE
  5
665
  8
TFAS-0009
  6
CONTINUOUS
 62
     7
 10
6842.710098086523
 20
-4814.788063832169
 30
0.0
 11
6840.589063832167
 21
-4816.909098086525
 31
0.0
  0
LINE
  5
666
  8
TFAS-0009
  6
CONTINUOUS
 62
     7
 10
6842.337544508891
 20
-4814.524221306728
 30
0.0
 11
6840.325221306726
 21
-4816.536544508893
 31
0.0
  0
LINE
  5
667
  8
TFAS-0009
  6
CONTINUOUS
 62
     7
 10
6841.848364931428
 20
-4814.377004781119
 30
0.0
 11
6840.178004781101
 21
-4816.047364931445
 31
0.0
  0
LINE
  5
668
  8
TFAS-0009
  6
CONTINUOUS
 62
     7
 10
6841.119475141953
 20
-4814.469498467537
 30
0.0
 11
6840.27049846754
 21
-4815.318475141954
 31
0.0
  0
CIRCLE
  5
669
  8
TFAS-0009
  6
CONTINUOUS
 62
     7
 10
6853.186999999918
 20
-4820.345999999903
 30
0.0
 40
1.5
  0
LINE
  5
66A
  8
TFAS-0009
  6
CONTINUOUS
 62
     7
 10
6854.667294307161
 20
-4820.10365981766
 30
0.0
 11
6852.944659817671
 21
-4821.82629430715
 31
0.0
  0
LINE
  5
66B
  8
TFAS-0009
  6
CONTINUOUS
 62
     7
 10
6854.230098086542
 20
-4819.26806383215
 30
0.0
 11
6852.109063832186
 21
-4821.389098086506
 31
0.0
  0
LINE
  5
66C
  8
TFAS-0009
  6
CONTINUOUS
 62
     7
 10
6853.368364931446
 20
-4818.8570047811
 30
0.0
 11
6851.698004781119
 21
-4820.527364931427
 31
0.0
  0
LINE
  5
66D
  8
TFAS-0009
  6
CONTINUOUS
 62
     7
 10
6854.620866975809
 20
-4820.786483252089
 30
0.0
 11
6853.627483252125
 21
-4821.779866975769
 31
0.0
  0
LINE
  5
66E
  8
TFAS-0009
  6
CONTINUOUS
 62
     7
 10
6854.667294307161
 20
-4820.10365981766
 30
0.0
 11
6852.944659817671
 21
-4821.82629430715
 31
0.0
  0
LINE
  5
66F
  8
TFAS-0009
  6
CONTINUOUS
 62
     7
 10
6854.504898466301
 20
-4819.629659555449
 30
0.0
 11
6852.470659555489
 21
-4821.663898466264
 31
0.0
  0
LINE
  5
670
  8
TFAS-0009
  6
CONTINUOUS
 62
     7
 10
6854.230098086542
 20
-4819.26806383215
 30
0.0
 11
6852.109063832186
 21
-4821.389098086506
 31
0.0
  0
LINE
  5
671
  8
TFAS-0009
  6
CONTINUOUS
 62
     7
 10
6853.85754450891
 20
-4819.004221306709
 30
0.0
 11
6851.845221306745
 21
-4821.016544508874
 31
0.0
  0
LINE
  5
672
  8
TFAS-0009
  6
CONTINUOUS
 62
     7
 10
6853.368364931446
 20
-4818.8570047811
 30
0.0
 11
6851.698004781119
 21
-4820.527364931427
 31
0.0
  0
LINE
  5
673
  8
TFAS-0009
  6
CONTINUOUS
 62
     7
 10
6852.639475141972
 20
-4818.949498467518
 30
0.0
 11
6851.790498467559
 21
-4819.798475141935
 31
0.0
  0
CIRCLE
  5
674
  8
TFAS-0009
  6
CONTINUOUS
 62
     7
 10
6861.273000000045
 20
-4822.905999999959
 30
0.0
 40
1.5
  0
LINE
  5
675
  8
TFAS-0009
  6
CONTINUOUS
 62
     7
 10
6862.753294307287
 20
-4822.663659817716
 30
0.0
 11
6861.030659817798
 21
-4824.386294307206
 31
0.0
  0
LINE
  5
676
  8
TFAS-0009
  6
CONTINUOUS
 62
     7
 10
6862.316098086669
 20
-4821.828063832206
 30
0.0
 11
6860.195063832312
 21
-4823.949098086562
 31
0.0
  0
LINE
  5
677
  8
TFAS-0009
  6
CONTINUOUS
 62
     7
 10
6861.454364931573
 20
-4821.417004781156
 30
0.0
 11
6859.784004781246
 21
-4823.087364931483
 31
0.0
  0
LINE
  5
678
  8
TFAS-0009
  6
CONTINUOUS
 62
     7
 10
6862.706866975936
 20
-4823.346483252145
 30
0.0
 11
6861.713483252252
 21
-4824.339866975825
 31
0.0
  0
LINE
  5
679
  8
TFAS-0009
  6
CONTINUOUS
 62
     7
 10
6862.753294307287
 20
-4822.663659817716
 30
0.0
 11
6861.030659817798
 21
-4824.386294307206
 31
0.0
  0
LINE
  5
67A
  8
TFAS-0009
  6
CONTINUOUS
 62
     7
 10
6862.590898466427
 20
-4822.189659555504
 30
0.0
 11
6860.556659555616
 21
-4824.22389846632
 31
0.0
  0
LINE
  5
67B
  8
TFAS-0009
  6
CONTINUOUS
 62
     7
 10
6862.316098086669
 20
-4821.828063832206
 30
0.0
 11
6860.195063832312
 21
-4823.949098086562
 31
0.0
  0
LINE
  5
67C
  8
TFAS-0009
  6
CONTINUOUS
 62
     7
 10
6861.943544509037
 20
-4821.564221306765
 30
0.0
 11
6859.931221306872
 21
-4823.57654450893
 31
0.0
  0
LINE
  5
67D
  8
TFAS-0009
  6
CONTINUOUS
 62
     7
 10
6861.454364931573
 20
-4821.417004781156
 30
0.0
 11
6859.784004781246
 21
-4823.087364931483
 31
0.0
  0
LINE
  5
67E
  8
TFAS-0009
  6
CONTINUOUS
 62
     7
 10
6860.725475142099
 20
-4821.509498467574
 30
0.0
 11
6859.876498467685
 21
-4822.358475141991
 31
0.0
  0
CIRCLE
  5
67F
  8
TFAS-0009
  6
CONTINUOUS
 62
     7
 10
6860.387000000104
 20
-4828.185999999754
 30
0.0
 40
1.5
  0
LINE
  5
680
  8
TFAS-0009
  6
CONTINUOUS
 62
     7
 10
6861.867294307347
 20
-4827.943659817511
 30
0.0
 11
6860.144659817857
 21
-4829.666294307001
 31
0.0
  0
LINE
  5
681
  8
TFAS-0009
  6
CONTINUOUS
 62
     7
 10
6861.430098086728
 20
-4827.108063832001
 30
0.0
 11
6859.309063832372
 21
-4829.229098086357
 31
0.0
  0
LINE
  5
682
  8
TFAS-0009
  6
CONTINUOUS
 62
     7
 10
6860.568364931632
 20
-4826.697004780951
 30
0.0
 11
6858.898004781306
 21
-4828.367364931278
 31
0.0
  0
LINE
  5
683
  8
TFAS-0009
  6
CONTINUOUS
 62
     7
 10
6861.820866975995
 20
-4828.62648325194
 30
0.0
 11
6860.827483252311
 21
-4829.61986697562
 31
0.0
  0
LINE
  5
684
  8
TFAS-0009
  6
CONTINUOUS
 62
     7
 10
6861.867294307347
 20
-4827.943659817511
 30
0.0
 11
6860.144659817857
 21
-4829.666294307001
 31
0.0
  0
LINE
  5
685
  8
TFAS-0009
  6
CONTINUOUS
 62
     7
 10
6861.704898466487
 20
-4827.4696595553
 30
0.0
 11
6859.670659555675
 21
-4829.503898466115
 31
0.0
  0
LINE
  5
686
  8
TFAS-0009
  6
CONTINUOUS
 62
     7
 10
6861.430098086728
 20
-4827.108063832001
 30
0.0
 11
6859.309063832372
 21
-4829.229098086357
 31
0.0
  0
LINE
  5
687
  8
TFAS-0009
  6
CONTINUOUS
 62
     7
 10
6861.057544509096
 20
-4826.84422130656
 30
0.0
 11
6859.045221306931
 21
-4828.856544508725
 31
0.0
  0
LINE
  5
688
  8
TFAS-0009
  6
CONTINUOUS
 62
     7
 10
6860.568364931632
 20
-4826.697004780951
 30
0.0
 11
6858.898004781306
 21
-4828.367364931278
 31
0.0
  0
LINE
  5
689
  8
TFAS-0009
  6
CONTINUOUS
 62
     7
 10
6859.839475142158
 20
-4826.789498467369
 30
0.0
 11
6858.990498467745
 21
-4827.638475141786
 31
0.0
  0
CIRCLE
  5
68A
  8
TFAS-0009
  6
CONTINUOUS
 62
     7
 10
6865.666999999899
 20
-4834.265999999829
 30
0.0
 40
1.5
  0
LINE
  5
68B
  8
TFAS-0009
  6
CONTINUOUS
 62
     7
 10
6867.147294307142
 20
-4834.023659817585
 30
0.0
 11
6865.424659817652
 21
-4835.746294307076
 31
0.0
  0
LINE
  5
68C
  8
TFAS-0009
  6
CONTINUOUS
 62
     7
 10
6866.710098086523
 20
-4833.188063832075
 30
0.0
 11
6864.589063832167
 21
-4835.309098086432
 31
0.0
  0
LINE
  5
68D
  8
TFAS-0009
  6
CONTINUOUS
 62
     7
 10
6865.848364931428
 20
-4832.777004781025
 30
0.0
 11
6864.178004781101
 21
-4834.447364931352
 31
0.0
  0
LINE
  5
68E
  8
TFAS-0009
  6
CONTINUOUS
 62
     7
 10
6867.10086697579
 20
-4834.706483252015
 30
0.0
 11
6866.107483252106
 21
-4835.699866975695
 31
0.0
  0
LINE
  5
68F
  8
TFAS-0009
  6
CONTINUOUS
 62
     7
 10
6867.147294307142
 20
-4834.023659817585
 30
0.0
 11
6865.424659817652
 21
-4835.746294307076
 31
0.0
  0
LINE
  5
690
  8
TFAS-0009
  6
CONTINUOUS
 62
     7
 10
6866.984898466282
 20
-4833.549659555374
 30
0.0
 11
6864.95065955547
 21
-4835.58389846619
 31
0.0
  0
LINE
  5
691
  8
TFAS-0009
  6
CONTINUOUS
 62
     7
 10
6866.710098086523
 20
-4833.188063832075
 30
0.0
 11
6864.589063832167
 21
-4835.309098086432
 31
0.0
  0
LINE
  5
692
  8
TFAS-0009
  6
CONTINUOUS
 62
     7
 10
6866.337544508891
 20
-4832.924221306635
 30
0.0
 11
6864.325221306726
 21
-4834.9365445088
 31
0.0
  0
LINE
  5
693
  8
TFAS-0009
  6
CONTINUOUS
 62
     7
 10
6865.848364931428
 20
-4832.777004781025
 30
0.0
 11
6864.178004781101
 21
-4834.447364931352
 31
0.0
  0
LINE
  5
694
  8
TFAS-0009
  6
CONTINUOUS
 62
     7
 10
6865.119475141953
 20
-4832.869498467444
 30
0.0
 11
6864.27049846754
 21
-4833.718475141861
 31
0.0
  0
CIRCLE
  5
695
  8
TFAS-0009
  6
CONTINUOUS
 62
     7
 10
6863.746999999974
 20
-4840.345999999903
 30
0.0
 40
1.5
  0
LINE
  5
696
  8
TFAS-0009
  6
CONTINUOUS
 62
     7
 10
6865.227294307217
 20
-4840.10365981766
 30
0.0
 11
6863.504659817727
 21
-4841.82629430715
 31
0.0
  0
LINE
  5
697
  8
TFAS-0009
  6
CONTINUOUS
 62
     7
 10
6864.790098086598
 20
-4839.26806383215
 30
0.0
 11
6862.669063832242
 21
-4841.389098086506
 31
0.0
  0
LINE
  5
698
  8
TFAS-0009
  6
CONTINUOUS
 62
     7
 10
6863.928364931502
 20
-4838.8570047811
 30
0.0
 11
6862.258004781175
 21
-4840.527364931427
 31
0.0
  0
LINE
  5
699
  8
TFAS-0009
  6
CONTINUOUS
 62
     7
 10
6865.180866975865
 20
-4840.786483252089
 30
0.0
 11
6864.187483252181
 21
-4841.779866975769
 31
0.0
  0
LINE
  5
69A
  8
TFAS-0009
  6
CONTINUOUS
 62
     7
 10
6865.227294307217
 20
-4840.10365981766
 30
0.0
 11
6863.504659817727
 21
-4841.82629430715
 31
0.0
  0
LINE
  5
69B
  8
TFAS-0009
  6
CONTINUOUS
 62
     7
 10
6865.064898466357
 20
-4839.629659555449
 30
0.0
 11
6863.030659555545
 21
-4841.663898466264
 31
0.0
  0
LINE
  5
69C
  8
TFAS-0009
  6
CONTINUOUS
 62
     7
 10
6864.790098086598
 20
-4839.26806383215
 30
0.0
 11
6862.669063832242
 21
-4841.389098086506
 31
0.0
  0
LINE
  5
69D
  8
TFAS-0009
  6
CONTINUOUS
 62
     7
 10
6864.417544508966
 20
-4839.004221306709
 30
0.0
 11
6862.405221306801
 21
-4841.016544508874
 31
0.0
  0
LINE
  5
69E
  8
TFAS-0009
  6
CONTINUOUS
 62
     7
 10
6863.928364931502
 20
-4838.8570047811
 30
0.0
 11
6862.258004781175
 21
-4840.527364931427
 31
0.0
  0
LINE
  5
69F
  8
TFAS-0009
  6
CONTINUOUS
 62
     7
 10
6863.199475142028
 20
-4838.949498467518
 30
0.0
 11
6862.350498467615
 21
-4839.798475141935
 31
0.0
  0
CIRCLE
  5
6A0
  8
TFAS-0009
  6
CONTINUOUS
 62
     7
 10
6866.94700000016
 20
-4851.546000000089
 30
0.0
 40
1.5
  0
LINE
  5
6A1
  8
TFAS-0009
  6
CONTINUOUS
 62
     7
 10
6868.427294307403
 20
-4851.303659817846
 30
0.0
 11
6866.704659817913
 21
-4853.026294307337
 31
0.0
  0
LINE
  5
6A2
  8
TFAS-0009
  6
CONTINUOUS
 62
     7
 10
6867.990098086784
 20
-4850.468063832336
 30
0.0
 11
6865.869063832428
 21
-4852.589098086693
 31
0.0
  0
LINE
  5
6A3
  8
TFAS-0009
  6
CONTINUOUS
 62
     7
 10
6867.128364931688
 20
-4850.057004781286
 30
0.0
 11
6865.458004781362
 21
-4851.727364931613
 31
0.0
  0
LINE
  5
6A4
  8
TFAS-0009
  6
CONTINUOUS
 62
     7
 10
6868.380866976051
 20
-4851.986483252275
 30
0.0
 11
6867.387483252367
 21
-4852.979866975956
 31
0.0
  0
LINE
  5
6A5
  8
TFAS-0009
  6
CONTINUOUS
 62
     7
 10
6868.427294307403
 20
-4851.303659817846
 30
0.0
 11
6866.704659817913
 21
-4853.026294307337
 31
0.0
  0
LINE
  5
6A6
  8
TFAS-0009
  6
CONTINUOUS
 62
     7
 10
6868.264898466543
 20
-4850.829659555635
 30
0.0
 11
6866.230659555731
 21
-4852.86389846645
 31
0.0
  0
LINE
  5
6A7
  8
TFAS-0009
  6
CONTINUOUS
 62
     7
 10
6867.990098086784
 20
-4850.468063832336
 30
0.0
 11
6865.869063832428
 21
-4852.589098086693
 31
0.0
  0
LINE
  5
6A8
  8
TFAS-0009
  6
CONTINUOUS
 62
     7
 10
6867.617544509152
 20
-4850.204221306895
 30
0.0
 11
6865.605221306987
 21
-4852.21654450906
 31
0.0
  0
LINE
  5
6A9
  8
TFAS-0009
  6
CONTINUOUS
 62
     7
 10
6867.128364931688
 20
-4850.057004781286
 30
0.0
 11
6865.458004781362
 21
-4851.727364931613
 31
0.0
  0
LINE
  5
6AA
  8
TFAS-0009
  6
CONTINUOUS
 62
     7
 10
6866.399475142214
 20
-4850.149498467705
 30
0.0
 11
6865.550498467801
 21
-4850.998475142122
 31
0.0
  0
CIRCLE
  5
6AB
  8
TFAS-0009
  6
CONTINUOUS
 62
     7
 10
6861.273000000045
 20
-4852.825999999885
 30
0.0
 40
1.5
  0
LINE
  5
6AC
  8
TFAS-0009
  6
CONTINUOUS
 62
     7
 10
6862.753294307287
 20
-4852.583659817641
 30
0.0
 11
6861.030659817798
 21
-4854.306294307132
 31
0.0
  0
LINE
  5
6AD
  8
TFAS-0009
  6
CONTINUOUS
 62
     7
 10
6862.316098086669
 20
-4851.748063832131
 30
0.0
 11
6860.195063832312
 21
-4853.869098086488
 31
0.0
  0
LINE
  5
6AE
  8
TFAS-0009
  6
CONTINUOUS
 62
     7
 10
6861.454364931573
 20
-4851.337004781081
 30
0.0
 11
6859.784004781246
 21
-4853.007364931408
 31
0.0
  0
LINE
  5
6AF
  8
TFAS-0009
  6
CONTINUOUS
 62
     7
 10
6862.706866975936
 20
-4853.26648325207
 30
0.0
 11
6861.713483252252
 21
-4854.259866975751
 31
0.0
  0
LINE
  5
6B0
  8
TFAS-0009
  6
CONTINUOUS
 62
     7
 10
6862.753294307287
 20
-4852.583659817641
 30
0.0
 11
6861.030659817798
 21
-4854.306294307132
 31
0.0
  0
LINE
  5
6B1
  8
TFAS-0009
  6
CONTINUOUS
 62
     7
 10
6862.590898466427
 20
-4852.10965955543
 30
0.0
 11
6860.556659555616
 21
-4854.143898466245
 31
0.0
  0
LINE
  5
6B2
  8
TFAS-0009
  6
CONTINUOUS
 62
     7
 10
6862.316098086669
 20
-4851.748063832131
 30
0.0
 11
6860.195063832312
 21
-4853.869098086488
 31
0.0
  0
LINE
  5
6B3
  8
TFAS-0009
  6
CONTINUOUS
 62
     7
 10
6861.943544509037
 20
-4851.48422130669
 30
0.0
 11
6859.931221306872
 21
-4853.496544508856
 31
0.0
  0
LINE
  5
6B4
  8
TFAS-0009
  6
CONTINUOUS
 62
     7
 10
6861.454364931573
 20
-4851.337004781081
 30
0.0
 11
6859.784004781246
 21
-4853.007364931408
 31
0.0
  0
LINE
  5
6B5
  8
TFAS-0009
  6
CONTINUOUS
 62
     7
 10
6860.725475142099
 20
-4851.4294984675
 30
0.0
 11
6859.876498467685
 21
-4852.278475141917
 31
0.0
  0
CIRCLE
  5
6B6
  8
TFAS-0009
  6
CONTINUOUS
 62
     7
 10
6863.907000000123
 20
-4857.785999999847
 30
0.0
 40
1.5
  0
LINE
  5
6B7
  8
TFAS-0009
  6
CONTINUOUS
 62
     7
 10
6865.387294307366
 20
-4857.543659817604
 30
0.0
 11
6863.664659817876
 21
-4859.266294307095
 31
0.0
  0
LINE
  5
6B8
  8
TFAS-0009
  6
CONTINUOUS
 62
     7
 10
6864.950098086747
 20
-4856.708063832094
 30
0.0
 11
6862.829063832391
 21
-4858.82909808645
 31
0.0
  0
LINE
  5
6B9
  8
TFAS-0009
  6
CONTINUOUS
 62
     7
 10
6864.088364931651
 20
-4856.297004781044
 30
0.0
 11
6862.418004781324
 21
-4857.967364931371
 31
0.0
  0
LINE
  5
6BA
  8
TFAS-0009
  6
CONTINUOUS
 62
     7
 10
6865.340866976014
 20
-4858.226483252033
 30
0.0
 11
6864.34748325233
 21
-4859.219866975714
 31
0.0
  0
LINE
  5
6BB
  8
TFAS-0009
  6
CONTINUOUS
 62
     7
 10
6865.387294307366
 20
-4857.543659817604
 30
0.0
 11
6863.664659817876
 21
-4859.266294307095
 31
0.0
  0
LINE
  5
6BC
  8
TFAS-0009
  6
CONTINUOUS
 62
     7
 10
6865.224898466506
 20
-4857.069659555393
 30
0.0
 11
6863.190659555694
 21
-4859.103898466208
 31
0.0
  0
LINE
  5
6BD
  8
TFAS-0009
  6
CONTINUOUS
 62
     7
 10
6864.950098086747
 20
-4856.708063832094
 30
0.0
 11
6862.829063832391
 21
-4858.82909808645
 31
0.0
  0
LINE
  5
6BE
  8
TFAS-0009
  6
CONTINUOUS
 62
     7
 10
6864.577544509115
 20
-4856.444221306653
 30
0.0
 11
6862.56522130695
 21
-4858.456544508818
 31
0.0
  0
LINE
  5
6BF
  8
TFAS-0009
  6
CONTINUOUS
 62
     7
 10
6864.088364931651
 20
-4856.297004781044
 30
0.0
 11
6862.418004781324
 21
-4857.967364931371
 31
0.0
  0
LINE
  5
6C0
  8
TFAS-0009
  6
CONTINUOUS
 62
     7
 10
6863.359475142177
 20
-4856.389498467463
 30
0.0
 11
6862.510498467764
 21
-4857.238475141879
 31
0.0
  0
CIRCLE
  5
6C1
  8
TFAS-0009
  6
CONTINUOUS
 62
     7
 10
6857.666999999899
 20
-4860.345999999903
 30
0.0
 40
1.5
  0
LINE
  5
6C2
  8
TFAS-0009
  6
CONTINUOUS
 62
     7
 10
6859.147294307142
 20
-4860.10365981766
 30
0.0
 11
6857.424659817652
 21
-4861.82629430715
 31
0.0
  0
LINE
  5
6C3
  8
TFAS-0009
  6
CONTINUOUS
 62
     7
 10
6858.710098086523
 20
-4859.26806383215
 30
0.0
 11
6856.589063832167
 21
-4861.389098086506
 31
0.0
  0
LINE
  5
6C4
  8
TFAS-0009
  6
CONTINUOUS
 62
     7
 10
6857.848364931428
 20
-4858.8570047811
 30
0.0
 11
6856.178004781101
 21
-4860.527364931427
 31
0.0
  0
LINE
  5
6C5
  8
TFAS-0009
  6
CONTINUOUS
 62
     7
 10
6859.10086697579
 20
-4860.786483252089
 30
0.0
 11
6858.107483252106
 21
-4861.779866975769
 31
0.0
  0
LINE
  5
6C6
  8
TFAS-0009
  6
CONTINUOUS
 62
     7
 10
6859.147294307142
 20
-4860.10365981766
 30
0.0
 11
6857.424659817652
 21
-4861.82629430715
 31
0.0
  0
LINE
  5
6C7
  8
TFAS-0009
  6
CONTINUOUS
 62
     7
 10
6858.984898466282
 20
-4859.629659555449
 30
0.0
 11
6856.95065955547
 21
-4861.663898466264
 31
0.0
  0
LINE
  5
6C8
  8
TFAS-0009
  6
CONTINUOUS
 62
     7
 10
6858.710098086523
 20
-4859.26806383215
 30
0.0
 11
6856.589063832167
 21
-4861.389098086506
 31
0.0
  0
LINE
  5
6C9
  8
TFAS-0009
  6
CONTINUOUS
 62
     7
 10
6858.337544508891
 20
-4859.004221306709
 30
0.0
 11
6856.325221306726
 21
-4861.016544508874
 31
0.0
  0
LINE
  5
6CA
  8
TFAS-0009
  6
CONTINUOUS
 62
     7
 10
6857.848364931428
 20
-4858.8570047811
 30
0.0
 11
6856.178004781101
 21
-4860.527364931427
 31
0.0
  0
LINE
  5
6CB
  8
TFAS-0009
  6
CONTINUOUS
 62
     7
 10
6857.119475141953
 20
-4858.949498467518
 30
0.0
 11
6856.27049846754
 21
-4859.798475141935
 31
0.0
  0
CIRCLE
  5
6CC
  8
TFAS-0009
  6
CONTINUOUS
 62
     7
 10
6857.666999999899
 20
-4865.617999999784
 30
0.0
 40
1.5
  0
LINE
  5
6CD
  8
TFAS-0009
  6
CONTINUOUS
 62
     7
 10
6859.147294307142
 20
-4865.375659817541
 30
0.0
 11
6857.424659817652
 21
-4867.098294307031
 31
0.0
  0
LINE
  5
6CE
  8
TFAS-0009
  6
CONTINUOUS
 62
     7
 10
6858.710098086523
 20
-4864.540063832031
 30
0.0
 11
6856.589063832167
 21
-4866.661098086387
 31
0.0
  0
LINE
  5
6CF
  8
TFAS-0009
  6
CONTINUOUS
 62
     7
 10
6857.848364931428
 20
-4864.129004780981
 30
0.0
 11
6856.178004781101
 21
-4865.799364931308
 31
0.0
  0
LINE
  5
6D0
  8
TFAS-0009
  6
CONTINUOUS
 62
     7
 10
6859.10086697579
 20
-4866.05848325197
 30
0.0
 11
6858.107483252106
 21
-4867.05186697565
 31
0.0
  0
LINE
  5
6D1
  8
TFAS-0009
  6
CONTINUOUS
 62
     7
 10
6859.147294307142
 20
-4865.375659817541
 30
0.0
 11
6857.424659817652
 21
-4867.098294307031
 31
0.0
  0
LINE
  5
6D2
  8
TFAS-0009
  6
CONTINUOUS
 62
     7
 10
6858.984898466282
 20
-4864.901659555329
 30
0.0
 11
6856.95065955547
 21
-4866.935898466145
 31
0.0
  0
LINE
  5
6D3
  8
TFAS-0009
  6
CONTINUOUS
 62
     7
 10
6858.710098086523
 20
-4864.540063832031
 30
0.0
 11
6856.589063832167
 21
-4866.661098086387
 31
0.0
  0
LINE
  5
6D4
  8
TFAS-0009
  6
CONTINUOUS
 62
     7
 10
6858.337544508891
 20
-4864.27622130659
 30
0.0
 11
6856.325221306726
 21
-4866.288544508755
 31
0.0
  0
LINE
  5
6D5
  8
TFAS-0009
  6
CONTINUOUS
 62
     7
 10
6857.848364931428
 20
-4864.129004780981
 30
0.0
 11
6856.178004781101
 21
-4865.799364931308
 31
0.0
  0
LINE
  5
6D6
  8
TFAS-0009
  6
CONTINUOUS
 62
     7
 10
6857.119475141953
 20
-4864.221498467399
 30
0.0
 11
6856.27049846754
 21
-4865.070475141816
 31
0.0
  0
CIRCLE
  5
6D7
  8
TFAS-0009
  6
CONTINUOUS
 62
     7
 10
6850.627000000328
 20
-4863.865999999922
 30
0.0
 40
1.5
  0
LINE
  5
6D8
  8
TFAS-0009
  6
CONTINUOUS
 62
     7
 10
6852.107294307571
 20
-4863.623659817678
 30
0.0
 11
6850.384659818081
 21
-4865.346294307169
 31
0.0
  0
LINE
  5
6D9
  8
TFAS-0009
  6
CONTINUOUS
 62
     7
 10
6851.670098086952
 20
-4862.788063832169
 30
0.0
 11
6849.549063832595
 21
-4864.909098086525
 31
0.0
  0
LINE
  5
6DA
  8
TFAS-0009
  6
CONTINUOUS
 62
     7
 10
6850.808364931856
 20
-4862.377004781119
 30
0.0
 11
6849.138004781529
 21
-4864.047364931445
 31
0.0
  0
LINE
  5
6DB
  8
TFAS-0009
  6
CONTINUOUS
 62
     7
 10
6852.060866976219
 20
-4864.306483252108
 30
0.0
 11
6851.067483252535
 21
-4865.299866975788
 31
0.0
  0
LINE
  5
6DC
  8
TFAS-0009
  6
CONTINUOUS
 62
     7
 10
6852.107294307571
 20
-4863.623659817678
 30
0.0
 11
6850.384659818081
 21
-4865.346294307169
 31
0.0
  0
LINE
  5
6DD
  8
TFAS-0009
  6
CONTINUOUS
 62
     7
 10
6851.944898466711
 20
-4863.149659555467
 30
0.0
 11
6849.910659555899
 21
-4865.183898466283
 31
0.0
  0
LINE
  5
6DE
  8
TFAS-0009
  6
CONTINUOUS
 62
     7
 10
6851.670098086952
 20
-4862.788063832169
 30
0.0
 11
6849.549063832595
 21
-4864.909098086525
 31
0.0
  0
LINE
  5
6DF
  8
TFAS-0009
  6
CONTINUOUS
 62
     7
 10
6851.29754450932
 20
-4862.524221306728
 30
0.0
 11
6849.285221307155
 21
-4864.536544508893
 31
0.0
  0
LINE
  5
6E0
  8
TFAS-0009
  6
CONTINUOUS
 62
     7
 10
6850.808364931856
 20
-4862.377004781119
 30
0.0
 11
6849.138004781529
 21
-4864.047364931445
 31
0.0
  0
LINE
  5
6E1
  8
TFAS-0009
  6
CONTINUOUS
 62
     7
 10
6850.079475142382
 20
-4862.469498467537
 30
0.0
 11
6849.230498467969
 21
-4863.318475141954
 31
0.0
  0
CIRCLE
  5
6E2
  8
TFAS-0009
  6
CONTINUOUS
 62
     7
 10
6850.787000000011
 20
-4869.785999999847
 30
0.0
 40
1.5
  0
LINE
  5
6E3
  8
TFAS-0009
  6
CONTINUOUS
 62
     7
 10
6852.267294307254
 20
-4869.543659817604
 30
0.0
 11
6850.544659817764
 21
-4871.266294307095
 31
0.0
  0
LINE
  5
6E4
  8
TFAS-0009
  6
CONTINUOUS
 62
     7
 10
6851.830098086635
 20
-4868.708063832094
 30
0.0
 11
6849.709063832279
 21
-4870.82909808645
 31
0.0
  0
LINE
  5
6E5
  8
TFAS-0009
  6
CONTINUOUS
 62
     7
 10
6850.968364931539
 20
-4868.297004781044
 30
0.0
 11
6849.298004781213
 21
-4869.967364931371
 31
0.0
  0
LINE
  5
6E6
  8
TFAS-0009
  6
CONTINUOUS
 62
     7
 10
6852.220866975902
 20
-4870.226483252033
 30
0.0
 11
6851.227483252218
 21
-4871.219866975714
 31
0.0
  0
LINE
  5
6E7
  8
TFAS-0009
  6
CONTINUOUS
 62
     7
 10
6852.267294307254
 20
-4869.543659817604
 30
0.0
 11
6850.544659817764
 21
-4871.266294307095
 31
0.0
  0
LINE
  5
6E8
  8
TFAS-0009
  6
CONTINUOUS
 62
     7
 10
6852.104898466394
 20
-4869.069659555393
 30
0.0
 11
6850.070659555582
 21
-4871.103898466208
 31
0.0
  0
LINE
  5
6E9
  8
TFAS-0009
  6
CONTINUOUS
 62
     7
 10
6851.830098086635
 20
-4868.708063832094
 30
0.0
 11
6849.709063832279
 21
-4870.82909808645
 31
0.0
  0
LINE
  5
6EA
  8
TFAS-0009
  6
CONTINUOUS
 62
     7
 10
6851.457544509003
 20
-4868.444221306653
 30
0.0
 11
6849.445221306838
 21
-4870.456544508818
 31
0.0
  0
LINE
  5
6EB
  8
TFAS-0009
  6
CONTINUOUS
 62
     7
 10
6850.968364931539
 20
-4868.297004781044
 30
0.0
 11
6849.298004781213
 21
-4869.967364931371
 31
0.0
  0
LINE
  5
6EC
  8
TFAS-0009
  6
CONTINUOUS
 62
     7
 10
6850.239475142065
 20
-4868.389498467463
 30
0.0
 11
6849.390498467652
 21
-4869.238475141879
 31
0.0
  0
CIRCLE
  5
6ED
  8
TFAS-0009
  6
CONTINUOUS
 62
     7
 10
6843.746999999974
 20
-4868.986000000034
 30
0.0
 40
1.5
  0
LINE
  5
6EE
  8
TFAS-0009
  6
CONTINUOUS
 62
     7
 10
6845.227294307217
 20
-4868.74365981779
 30
0.0
 11
6843.504659817727
 21
-4870.466294307281
 31
0.0
  0
LINE
  5
6EF
  8
TFAS-0009
  6
CONTINUOUS
 62
     7
 10
6844.790098086598
 20
-4867.90806383228
 30
0.0
 11
6842.669063832242
 21
-4870.029098086637
 31
0.0
  0
LINE
  5
6F0
  8
TFAS-0009
  6
CONTINUOUS
 62
     7
 10
6843.928364931502
 20
-4867.49700478123
 30
0.0
 11
6842.258004781175
 21
-4869.167364931557
 31
0.0
  0
LINE
  5
6F1
  8
TFAS-0009
  6
CONTINUOUS
 62
     7
 10
6845.180866975865
 20
-4869.426483252219
 30
0.0
 11
6844.187483252181
 21
-4870.4198669759
 31
0.0
  0
LINE
  5
6F2
  8
TFAS-0009
  6
CONTINUOUS
 62
     7
 10
6845.227294307217
 20
-4868.74365981779
 30
0.0
 11
6843.504659817727
 21
-4870.466294307281
 31
0.0
  0
LINE
  5
6F3
  8
TFAS-0009
  6
CONTINUOUS
 62
     7
 10
6845.064898466357
 20
-4868.269659555579
 30
0.0
 11
6843.030659555545
 21
-4870.303898466394
 31
0.0
  0
LINE
  5
6F4
  8
TFAS-0009
  6
CONTINUOUS
 62
     7
 10
6844.790098086598
 20
-4867.90806383228
 30
0.0
 11
6842.669063832242
 21
-4870.029098086637
 31
0.0
  0
LINE
  5
6F5
  8
TFAS-0009
  6
CONTINUOUS
 62
     7
 10
6844.417544508966
 20
-4867.644221306839
 30
0.0
 11
6842.405221306801
 21
-4869.656544509005
 31
0.0
  0
LINE
  5
6F6
  8
TFAS-0009
  6
CONTINUOUS
 62
     7
 10
6843.928364931502
 20
-4867.49700478123
 30
0.0
 11
6842.258004781175
 21
-4869.167364931557
 31
0.0
  0
LINE
  5
6F7
  8
TFAS-0009
  6
CONTINUOUS
 62
     7
 10
6843.199475142028
 20
-4867.589498467649
 30
0.0
 11
6842.350498467615
 21
-4868.438475142066
 31
0.0
  0
CIRCLE
  5
6F8
  8
TFAS-0009
  6
CONTINUOUS
 62
     7
 10
6835.107000000309
 20
-4872.506000000052
 30
0.0
 40
1.5
  0
LINE
  5
6F9
  8
TFAS-0009
  6
CONTINUOUS
 62
     7
 10
6836.587294307552
 20
-4872.263659817809
 30
0.0
 11
6834.864659818062
 21
-4873.986294307299
 31
0.0
  0
LINE
  5
6FA
  8
TFAS-0009
  6
CONTINUOUS
 62
     7
 10
6836.150098086933
 20
-4871.428063832299
 30
0.0
 11
6834.029063832577
 21
-4873.549098086655
 31
0.0
  0
LINE
  5
6FB
  8
TFAS-0009
  6
CONTINUOUS
 62
     7
 10
6835.288364931837
 20
-4871.017004781249
 30
0.0
 11
6833.618004781511
 21
-4872.687364931576
 31
0.0
  0
LINE
  5
6FC
  8
TFAS-0009
  6
CONTINUOUS
 62
     7
 10
6836.5408669762
 20
-4872.946483252238
 30
0.0
 11
6835.547483252516
 21
-4873.939866975918
 31
0.0
  0
LINE
  5
6FD
  8
TFAS-0009
  6
CONTINUOUS
 62
     7
 10
6836.587294307552
 20
-4872.263659817809
 30
0.0
 11
6834.864659818062
 21
-4873.986294307299
 31
0.0
  0
LINE
  5
6FE
  8
TFAS-0009
  6
CONTINUOUS
 62
     7
 10
6836.424898466692
 20
-4871.789659555598
 30
0.0
 11
6834.39065955588
 21
-4873.823898466413
 31
0.0
  0
LINE
  5
6FF
  8
TFAS-0009
  6
CONTINUOUS
 62
     7
 10
6836.150098086933
 20
-4871.428063832299
 30
0.0
 11
6834.029063832577
 21
-4873.549098086655
 31
0.0
  0
LINE
  5
700
  8
TFAS-0009
  6
CONTINUOUS
 62
     7
 10
6835.777544509301
 20
-4871.164221306858
 30
0.0
 11
6833.765221307136
 21
-4873.176544509023
 31
0.0
  0
LINE
  5
701
  8
TFAS-0009
  6
CONTINUOUS
 62
     7
 10
6835.288364931837
 20
-4871.017004781249
 30
0.0
 11
6833.618004781511
 21
-4872.687364931576
 31
0.0
  0
LINE
  5
702
  8
TFAS-0009
  6
CONTINUOUS
 62
     7
 10
6834.559475142363
 20
-4871.109498467667
 30
0.0
 11
6833.71049846795
 21
-4871.958475142084
 31
0.0
  0
CIRCLE
  5
703
  8
TFAS-0009
  6
CONTINUOUS
 62
     7
 10
6832.867000000086
 20
-4868.185999999754
 30
0.0
 40
1.5
  0
LINE
  5
704
  8
TFAS-0009
  6
CONTINUOUS
 62
     7
 10
6834.347294307328
 20
-4867.943659817511
 30
0.0
 11
6832.624659817839
 21
-4869.666294307001
 31
0.0
  0
LINE
  5
705
  8
TFAS-0009
  6
CONTINUOUS
 62
     7
 10
6833.91009808671
 20
-4867.108063832001
 30
0.0
 11
6831.789063832353
 21
-4869.229098086357
 31
0.0
  0
LINE
  5
706
  8
TFAS-0009
  6
CONTINUOUS
 62
     7
 10
6833.048364931614
 20
-4866.697004780951
 30
0.0
 11
6831.378004781287
 21
-4868.367364931278
 31
0.0
  0
LINE
  5
707
  8
TFAS-0009
  6
CONTINUOUS
 62
     7
 10
6834.300866975977
 20
-4868.62648325194
 30
0.0
 11
6833.307483252293
 21
-4869.61986697562
 31
0.0
  0
LINE
  5
708
  8
TFAS-0009
  6
CONTINUOUS
 62
     7
 10
6834.347294307328
 20
-4867.943659817511
 30
0.0
 11
6832.624659817839
 21
-4869.666294307001
 31
0.0
  0
LINE
  5
709
  8
TFAS-0009
  6
CONTINUOUS
 62
     7
 10
6834.184898466468
 20
-4867.4696595553
 30
0.0
 11
6832.150659555657
 21
-4869.503898466115
 31
0.0
  0
LINE
  5
70A
  8
TFAS-0009
  6
CONTINUOUS
 62
     7
 10
6833.91009808671
 20
-4867.108063832001
 30
0.0
 11
6831.789063832353
 21
-4869.229098086357
 31
0.0
  0
LINE
  5
70B
  8
TFAS-0009
  6
CONTINUOUS
 62
     7
 10
6833.537544509078
 20
-4866.84422130656
 30
0.0
 11
6831.525221306912
 21
-4868.856544508725
 31
0.0
  0
LINE
  5
70C
  8
TFAS-0009
  6
CONTINUOUS
 62
     7
 10
6833.048364931614
 20
-4866.697004780951
 30
0.0
 11
6831.378004781287
 21
-4868.367364931278
 31
0.0
  0
LINE
  5
70D
  8
TFAS-0009
  6
CONTINUOUS
 62
     7
 10
6832.31947514214
 20
-4866.789498467369
 30
0.0
 11
6831.470498467726
 21
-4867.638475141786
 31
0.0
  0
CIRCLE
  5
70E
  8
TFAS-0009
  6
CONTINUOUS
 62
     7
 10
6828.067000000272
 20
-4871.865999999922
 30
0.0
 40
1.5
  0
LINE
  5
70F
  8
TFAS-0009
  6
CONTINUOUS
 62
     7
 10
6829.547294307515
 20
-4871.623659817678
 30
0.0
 11
6827.824659818025
 21
-4873.346294307169
 31
0.0
  0
LINE
  5
710
  8
TFAS-0009
  6
CONTINUOUS
 62
     7
 10
6829.110098086896
 20
-4870.788063832169
 30
0.0
 11
6826.98906383254
 21
-4872.909098086525
 31
0.0
  0
LINE
  5
711
  8
TFAS-0009
  6
CONTINUOUS
 62
     7
 10
6828.2483649318
 20
-4870.377004781119
 30
0.0
 11
6826.578004781473
 21
-4872.047364931445
 31
0.0
  0
LINE
  5
712
  8
TFAS-0009
  6
CONTINUOUS
 62
     7
 10
6829.500866976163
 20
-4872.306483252108
 30
0.0
 11
6828.507483252479
 21
-4873.299866975788
 31
0.0
  0
LINE
  5
713
  8
TFAS-0009
  6
CONTINUOUS
 62
     7
 10
6829.547294307515
 20
-4871.623659817678
 30
0.0
 11
6827.824659818025
 21
-4873.346294307169
 31
0.0
  0
LINE
  5
714
  8
TFAS-0009
  6
CONTINUOUS
 62
     7
 10
6829.384898466655
 20
-4871.149659555467
 30
0.0
 11
6827.350659555843
 21
-4873.183898466283
 31
0.0
  0
LINE
  5
715
  8
TFAS-0009
  6
CONTINUOUS
 62
     7
 10
6829.110098086896
 20
-4870.788063832169
 30
0.0
 11
6826.98906383254
 21
-4872.909098086525
 31
0.0
  0
LINE
  5
716
  8
TFAS-0009
  6
CONTINUOUS
 62
     7
 10
6828.737544509264
 20
-4870.524221306728
 30
0.0
 11
6826.725221307099
 21
-4872.536544508893
 31
0.0
  0
LINE
  5
717
  8
TFAS-0009
  6
CONTINUOUS
 62
     7
 10
6828.2483649318
 20
-4870.377004781119
 30
0.0
 11
6826.578004781473
 21
-4872.047364931445
 31
0.0
  0
LINE
  5
718
  8
TFAS-0009
  6
CONTINUOUS
 62
     7
 10
6827.519475142326
 20
-4870.469498467537
 30
0.0
 11
6826.670498467913
 21
-4871.318475141954
 31
0.0
  0
CIRCLE
  5
719
  8
TFAS-0009
  6
CONTINUOUS
 62
     7
 10
6822.787000000011
 20
-4868.825999999885
 30
0.0
 40
1.5
  0
LINE
  5
71A
  8
TFAS-0009
  6
CONTINUOUS
 62
     7
 10
6824.267294307254
 20
-4868.583659817641
 30
0.0
 11
6822.544659817764
 21
-4870.306294307132
 31
0.0
  0
LINE
  5
71B
  8
TFAS-0009
  6
CONTINUOUS
 62
     7
 10
6823.830098086635
 20
-4867.748063832131
 30
0.0
 11
6821.709063832279
 21
-4869.869098086488
 31
0.0
  0
LINE
  5
71C
  8
TFAS-0009
  6
CONTINUOUS
 62
     7
 10
6822.968364931539
 20
-4867.337004781081
 30
0.0
 11
6821.298004781213
 21
-4869.007364931408
 31
0.0
  0
LINE
  5
71D
  8
TFAS-0009
  6
CONTINUOUS
 62
     7
 10
6824.220866975902
 20
-4869.26648325207
 30
0.0
 11
6823.227483252218
 21
-4870.259866975751
 31
0.0
  0
LINE
  5
71E
  8
TFAS-0009
  6
CONTINUOUS
 62
     7
 10
6824.267294307254
 20
-4868.583659817641
 30
0.0
 11
6822.544659817764
 21
-4870.306294307132
 31
0.0
  0
LINE
  5
71F
  8
TFAS-0009
  6
CONTINUOUS
 62
     7
 10
6824.104898466394
 20
-4868.10965955543
 30
0.0
 11
6822.070659555582
 21
-4870.143898466245
 31
0.0
  0
LINE
  5
720
  8
TFAS-0009
  6
CONTINUOUS
 62
     7
 10
6823.830098086635
 20
-4867.748063832131
 30
0.0
 11
6821.709063832279
 21
-4869.869098086488
 31
0.0
  0
LINE
  5
721
  8
TFAS-0009
  6
CONTINUOUS
 62
     7
 10
6823.457544509003
 20
-4867.48422130669
 30
0.0
 11
6821.445221306838
 21
-4869.496544508856
 31
0.0
  0
LINE
  5
722
  8
TFAS-0009
  6
CONTINUOUS
 62
     7
 10
6822.968364931539
 20
-4867.337004781081
 30
0.0
 11
6821.298004781213
 21
-4869.007364931408
 31
0.0
  0
LINE
  5
723
  8
TFAS-0009
  6
CONTINUOUS
 62
     7
 10
6822.239475142065
 20
-4867.4294984675
 30
0.0
 11
6821.390498467652
 21
-4868.278475141917
 31
0.0
  0
CIRCLE
  5
724
  8
TFAS-0009
  6
CONTINUOUS
 62
     7
 10
6823.587000000291
 20
-4863.865999999922
 30
0.0
 40
1.5
  0
LINE
  5
725
  8
TFAS-0009
  6
CONTINUOUS
 62
     7
 10
6825.067294307533
 20
-4863.623659817678
 30
0.0
 11
6823.344659818044
 21
-4865.346294307169
 31
0.0
  0
LINE
  5
726
  8
TFAS-0009
  6
CONTINUOUS
 62
     7
 10
6824.630098086915
 20
-4862.788063832169
 30
0.0
 11
6822.509063832558
 21
-4864.909098086525
 31
0.0
  0
LINE
  5
727
  8
TFAS-0009
  6
CONTINUOUS
 62
     7
 10
6823.768364931819
 20
-4862.377004781119
 30
0.0
 11
6822.098004781492
 21
-4864.047364931445
 31
0.0
  0
LINE
  5
728
  8
TFAS-0009
  6
CONTINUOUS
 62
     7
 10
6825.020866976181
 20
-4864.306483252108
 30
0.0
 11
6824.027483252497
 21
-4865.299866975788
 31
0.0
  0
LINE
  5
729
  8
TFAS-0009
  6
CONTINUOUS
 62
     7
 10
6825.067294307533
 20
-4863.623659817678
 30
0.0
 11
6823.344659818044
 21
-4865.346294307169
 31
0.0
  0
LINE
  5
72A
  8
TFAS-0009
  6
CONTINUOUS
 62
     7
 10
6824.904898466673
 20
-4863.149659555467
 30
0.0
 11
6822.870659555861
 21
-4865.183898466283
 31
0.0
  0
LINE
  5
72B
  8
TFAS-0009
  6
CONTINUOUS
 62
     7
 10
6824.630098086915
 20
-4862.788063832169
 30
0.0
 11
6822.509063832558
 21
-4864.909098086525
 31
0.0
  0
LINE
  5
72C
  8
TFAS-0009
  6
CONTINUOUS
 62
     7
 10
6824.257544509283
 20
-4862.524221306728
 30
0.0
 11
6822.245221307117
 21
-4864.536544508893
 31
0.0
  0
LINE
  5
72D
  8
TFAS-0009
  6
CONTINUOUS
 62
     7
 10
6823.768364931819
 20
-4862.377004781119
 30
0.0
 11
6822.098004781492
 21
-4864.047364931445
 31
0.0
  0
LINE
  5
72E
  8
TFAS-0009
  6
CONTINUOUS
 62
     7
 10
6823.039475142345
 20
-4862.469498467537
 30
0.0
 11
6822.190498467931
 21
-4863.318475141954
 31
0.0
  0
CIRCLE
  5
72F
  8
TFAS-0009
  6
CONTINUOUS
 62
     7
 10
6817.027000000235
 20
-4863.865999999922
 30
0.0
 40
1.5
  0
LINE
  5
730
  8
TFAS-0009
  6
CONTINUOUS
 62
     7
 10
6818.507294307477
 20
-4863.623659817678
 30
0.0
 11
6816.784659817988
 21
-4865.346294307169
 31
0.0
  0
LINE
  5
731
  8
TFAS-0009
  6
CONTINUOUS
 62
     7
 10
6818.070098086859
 20
-4862.788063832169
 30
0.0
 11
6815.949063832502
 21
-4864.909098086525
 31
0.0
  0
LINE
  5
732
  8
TFAS-0009
  6
CONTINUOUS
 62
     7
 10
6817.208364931763
 20
-4862.377004781119
 30
0.0
 11
6815.538004781436
 21
-4864.047364931445
 31
0.0
  0
LINE
  5
733
  8
TFAS-0009
  6
CONTINUOUS
 62
     7
 10
6818.460866976126
 20
-4864.306483252108
 30
0.0
 11
6817.467483252442
 21
-4865.299866975788
 31
0.0
  0
LINE
  5
734
  8
TFAS-0009
  6
CONTINUOUS
 62
     7
 10
6818.507294307477
 20
-4863.623659817678
 30
0.0
 11
6816.784659817988
 21
-4865.346294307169
 31
0.0
  0
LINE
  5
735
  8
TFAS-0009
  6
CONTINUOUS
 62
     7
 10
6818.344898466617
 20
-4863.149659555467
 30
0.0
 11
6816.310659555806
 21
-4865.183898466283
 31
0.0
  0
LINE
  5
736
  8
TFAS-0009
  6
CONTINUOUS
 62
     7
 10
6818.070098086859
 20
-4862.788063832169
 30
0.0
 11
6815.949063832502
 21
-4864.909098086525
 31
0.0
  0
LINE
  5
737
  8
TFAS-0009
  6
CONTINUOUS
 62
     7
 10
6817.697544509227
 20
-4862.524221306728
 30
0.0
 11
6815.685221307062
 21
-4864.536544508893
 31
0.0
  0
LINE
  5
738
  8
TFAS-0009
  6
CONTINUOUS
 62
     7
 10
6817.208364931763
 20
-4862.377004781119
 30
0.0
 11
6815.538004781436
 21
-4864.047364931445
 31
0.0
  0
LINE
  5
739
  8
TFAS-0009
  6
CONTINUOUS
 62
     7
 10
6816.479475142289
 20
-4862.469498467537
 30
0.0
 11
6815.630498467875
 21
-4863.318475141954
 31
0.0
  0
CIRCLE
  5
73A
  8
TFAS-0009
  6
CONTINUOUS
 62
     7
 10
6817.027000000235
 20
-4859.225999999791
 30
0.0
 40
1.5
  0
LINE
  5
73B
  8
TFAS-0009
  6
CONTINUOUS
 62
     7
 10
6818.507294307477
 20
-4858.983659817548
 30
0.0
 11
6816.784659817988
 21
-4860.706294307039
 31
0.0
  0
LINE
  5
73C
  8
TFAS-0009
  6
CONTINUOUS
 62
     7
 10
6818.070098086859
 20
-4858.148063832038
 30
0.0
 11
6815.949063832502
 21
-4860.269098086394
 31
0.0
  0
LINE
  5
73D
  8
TFAS-0009
  6
CONTINUOUS
 62
     7
 10
6817.208364931763
 20
-4857.737004780988
 30
0.0
 11
6815.538004781436
 21
-4859.407364931315
 31
0.0
  0
LINE
  5
73E
  8
TFAS-0009
  6
CONTINUOUS
 62
     7
 10
6818.460866976126
 20
-4859.666483251977
 30
0.0
 11
6817.467483252442
 21
-4860.659866975658
 31
0.0
  0
LINE
  5
73F
  8
TFAS-0009
  6
CONTINUOUS
 62
     7
 10
6818.507294307477
 20
-4858.983659817548
 30
0.0
 11
6816.784659817988
 21
-4860.706294307039
 31
0.0
  0
LINE
  5
740
  8
TFAS-0009
  6
CONTINUOUS
 62
     7
 10
6818.344898466617
 20
-4858.509659555337
 30
0.0
 11
6816.310659555806
 21
-4860.543898466152
 31
0.0
  0
LINE
  5
741
  8
TFAS-0009
  6
CONTINUOUS
 62
     7
 10
6818.070098086859
 20
-4858.148063832038
 30
0.0
 11
6815.949063832502
 21
-4860.269098086394
 31
0.0
  0
LINE
  5
742
  8
TFAS-0009
  6
CONTINUOUS
 62
     7
 10
6817.697544509227
 20
-4857.884221306597
 30
0.0
 11
6815.685221307062
 21
-4859.896544508762
 31
0.0
  0
LINE
  5
743
  8
TFAS-0009
  6
CONTINUOUS
 62
     7
 10
6817.208364931763
 20
-4857.737004780988
 30
0.0
 11
6815.538004781436
 21
-4859.407364931315
 31
0.0
  0
LINE
  5
744
  8
TFAS-0009
  6
CONTINUOUS
 62
     7
 10
6816.479475142289
 20
-4857.829498467407
 30
0.0
 11
6815.630498467875
 21
-4858.678475141824
 31
0.0
  0
CIRCLE
  5
745
  8
TFAS-0009
  6
CONTINUOUS
 62
     7
 10
6811.266999999993
 20
-4856.506000000052
 30
0.0
 40
1.5
  0
LINE
  5
746
  8
TFAS-0009
  6
CONTINUOUS
 62
     7
 10
6812.747294307235
 20
-4856.263659817809
 30
0.0
 11
6811.024659817745
 21
-4857.986294307299
 31
0.0
  0
LINE
  5
747
  8
TFAS-0009
  6
CONTINUOUS
 62
     7
 10
6812.310098086617
 20
-4855.428063832299
 30
0.0
 11
6810.18906383226
 21
-4857.549098086655
 31
0.0
  0
LINE
  5
748
  8
TFAS-0009
  6
CONTINUOUS
 62
     7
 10
6811.448364931521
 20
-4855.017004781249
 30
0.0
 11
6809.778004781194
 21
-4856.687364931576
 31
0.0
  0
LINE
  5
749
  8
TFAS-0009
  6
CONTINUOUS
 62
     7
 10
6812.700866975883
 20
-4856.946483252238
 30
0.0
 11
6811.707483252199
 21
-4857.939866975918
 31
0.0
  0
LINE
  5
74A
  8
TFAS-0009
  6
CONTINUOUS
 62
     7
 10
6812.747294307235
 20
-4856.263659817809
 30
0.0
 11
6811.024659817745
 21
-4857.986294307299
 31
0.0
  0
LINE
  5
74B
  8
TFAS-0009
  6
CONTINUOUS
 62
     7
 10
6812.584898466375
 20
-4855.789659555598
 30
0.0
 11
6810.550659555563
 21
-4857.823898466413
 31
0.0
  0
LINE
  5
74C
  8
TFAS-0009
  6
CONTINUOUS
 62
     7
 10
6812.310098086617
 20
-4855.428063832299
 30
0.0
 11
6810.18906383226
 21
-4857.549098086655
 31
0.0
  0
LINE
  5
74D
  8
TFAS-0009
  6
CONTINUOUS
 62
     7
 10
6811.937544508985
 20
-4855.164221306858
 30
0.0
 11
6809.925221306819
 21
-4857.176544509023
 31
0.0
  0
LINE
  5
74E
  8
TFAS-0009
  6
CONTINUOUS
 62
     7
 10
6811.448364931521
 20
-4855.017004781249
 30
0.0
 11
6809.778004781194
 21
-4856.687364931576
 31
0.0
  0
LINE
  5
74F
  8
TFAS-0009
  6
CONTINUOUS
 62
     7
 10
6810.719475142047
 20
-4855.109498467667
 30
0.0
 11
6809.870498467633
 21
-4855.958475142084
 31
0.0
  0
CIRCLE
  5
750
  8
TFAS-0009
  6
CONTINUOUS
 62
     7
 10
6810.30700000003
 20
-4849.945999999996
 30
0.0
 40
1.5
  0
LINE
  5
751
  8
TFAS-0009
  6
CONTINUOUS
 62
     7
 10
6811.787294307273
 20
-4849.703659817753
 30
0.0
 11
6810.064659817783
 21
-4851.426294307244
 31
0.0
  0
LINE
  5
752
  8
TFAS-0009
  6
CONTINUOUS
 62
     7
 10
6811.350098086654
 20
-4848.868063832243
 30
0.0
 11
6809.229063832297
 21
-4850.989098086599
 31
0.0
  0
LINE
  5
753
  8
TFAS-0009
  6
CONTINUOUS
 62
     7
 10
6810.488364931558
 20
-4848.457004781193
 30
0.0
 11
6808.818004781231
 21
-4850.12736493152
 31
0.0
  0
LINE
  5
754
  8
TFAS-0009
  6
CONTINUOUS
 62
     7
 10
6811.740866975921
 20
-4850.386483252182
 30
0.0
 11
6810.747483252237
 21
-4851.379866975863
 31
0.0
  0
LINE
  5
755
  8
TFAS-0009
  6
CONTINUOUS
 62
     7
 10
6811.787294307273
 20
-4849.703659817753
 30
0.0
 11
6810.064659817783
 21
-4851.426294307244
 31
0.0
  0
LINE
  5
756
  8
TFAS-0009
  6
CONTINUOUS
 62
     7
 10
6811.624898466413
 20
-4849.229659555542
 30
0.0
 11
6809.590659555601
 21
-4851.263898466357
 31
0.0
  0
LINE
  5
757
  8
TFAS-0009
  6
CONTINUOUS
 62
     7
 10
6811.350098086654
 20
-4848.868063832243
 30
0.0
 11
6809.229063832297
 21
-4850.989098086599
 31
0.0
  0
LINE
  5
758
  8
TFAS-0009
  6
CONTINUOUS
 62
     7
 10
6810.977544509022
 20
-4848.604221306802
 30
0.0
 11
6808.965221306857
 21
-4850.616544508967
 31
0.0
  0
LINE
  5
759
  8
TFAS-0009
  6
CONTINUOUS
 62
     7
 10
6810.488364931558
 20
-4848.457004781193
 30
0.0
 11
6808.818004781231
 21
-4850.12736493152
 31
0.0
  0
LINE
  5
75A
  8
TFAS-0009
  6
CONTINUOUS
 62
     7
 10
6809.759475142084
 20
-4848.549498467612
 30
0.0
 11
6808.910498467671
 21
-4849.398475142028
 31
0.0
  0
CIRCLE
  5
75B
  8
TFAS-0009
  6
CONTINUOUS
 62
     7
 10
6805.347000000067
 20
-4850.905999999959
 30
0.0
 40
1.5
  0
LINE
  5
75C
  8
TFAS-0009
  6
CONTINUOUS
 62
     7
 10
6806.82729430731
 20
-4850.663659817716
 30
0.0
 11
6805.10465981782
 21
-4852.386294307206
 31
0.0
  0
LINE
  5
75D
  8
TFAS-0009
  6
CONTINUOUS
 62
     7
 10
6806.390098086691
 20
-4849.828063832206
 30
0.0
 11
6804.269063832335
 21
-4851.949098086562
 31
0.0
  0
LINE
  5
75E
  8
TFAS-0009
  6
CONTINUOUS
 62
     7
 10
6805.528364931595
 20
-4849.417004781156
 30
0.0
 11
6803.858004781268
 21
-4851.087364931483
 31
0.0
  0
LINE
  5
75F
  8
TFAS-0009
  6
CONTINUOUS
 62
     7
 10
6806.780866975958
 20
-4851.346483252145
 30
0.0
 11
6805.787483252274
 21
-4852.339866975825
 31
0.0
  0
LINE
  5
760
  8
TFAS-0009
  6
CONTINUOUS
 62
     7
 10
6806.82729430731
 20
-4850.663659817716
 30
0.0
 11
6805.10465981782
 21
-4852.386294307206
 31
0.0
  0
LINE
  5
761
  8
TFAS-0009
  6
CONTINUOUS
 62
     7
 10
6806.66489846645
 20
-4850.189659555504
 30
0.0
 11
6804.630659555638
 21
-4852.22389846632
 31
0.0
  0
LINE
  5
762
  8
TFAS-0009
  6
CONTINUOUS
 62
     7
 10
6806.390098086691
 20
-4849.828063832206
 30
0.0
 11
6804.269063832335
 21
-4851.949098086562
 31
0.0
  0
LINE
  5
763
  8
TFAS-0009
  6
CONTINUOUS
 62
     7
 10
6806.017544509059
 20
-4849.564221306765
 30
0.0
 11
6804.005221306894
 21
-4851.57654450893
 31
0.0
  0
LINE
  5
764
  8
TFAS-0009
  6
CONTINUOUS
 62
     7
 10
6805.528364931595
 20
-4849.417004781156
 30
0.0
 11
6803.858004781268
 21
-4851.087364931483
 31
0.0
  0
LINE
  5
765
  8
TFAS-0009
  6
CONTINUOUS
 62
     7
 10
6804.799475142121
 20
-4849.509498467574
 30
0.0
 11
6803.950498467708
 21
-4850.358475141991
 31
0.0
  0
CIRCLE
  5
766
  8
TFAS-0009
  6
CONTINUOUS
 62
     7
 10
6806.467000000179
 20
-4840.665999999736
 30
0.0
 40
1.5
  0
LINE
  5
767
  8
TFAS-0009
  6
CONTINUOUS
 62
     7
 10
6807.947294307422
 20
-4840.423659817492
 30
0.0
 11
6806.224659817932
 21
-4842.146294306983
 31
0.0
  0
LINE
  5
768
  8
TFAS-0009
  6
CONTINUOUS
 62
     7
 10
6807.510098086803
 20
-4839.588063831982
 30
0.0
 11
6805.389063832446
 21
-4841.709098086339
 31
0.0
  0
LINE
  5
769
  8
TFAS-0009
  6
CONTINUOUS
 62
     7
 10
6806.648364931707
 20
-4839.177004780932
 30
0.0
 11
6804.97800478138
 21
-4840.847364931259
 31
0.0
  0
LINE
  5
76A
  8
TFAS-0009
  6
CONTINUOUS
 62
     7
 10
6807.90086697607
 20
-4841.106483251921
 30
0.0
 11
6806.907483252386
 21
-4842.099866975602
 31
0.0
  0
LINE
  5
76B
  8
TFAS-0009
  6
CONTINUOUS
 62
     7
 10
6807.947294307422
 20
-4840.423659817492
 30
0.0
 11
6806.224659817932
 21
-4842.146294306983
 31
0.0
  0
LINE
  5
76C
  8
TFAS-0009
  6
CONTINUOUS
 62
     7
 10
6807.784898466562
 20
-4839.949659555281
 30
0.0
 11
6805.75065955575
 21
-4841.983898466096
 31
0.0
  0
LINE
  5
76D
  8
TFAS-0009
  6
CONTINUOUS
 62
     7
 10
6807.510098086803
 20
-4839.588063831982
 30
0.0
 11
6805.389063832446
 21
-4841.709098086339
 31
0.0
  0
LINE
  5
76E
  8
TFAS-0009
  6
CONTINUOUS
 62
     7
 10
6807.137544509171
 20
-4839.324221306541
 30
0.0
 11
6805.125221307006
 21
-4841.336544508707
 31
0.0
  0
LINE
  5
76F
  8
TFAS-0009
  6
CONTINUOUS
 62
     7
 10
6806.648364931707
 20
-4839.177004780932
 30
0.0
 11
6804.97800478138
 21
-4840.847364931259
 31
0.0
  0
LINE
  5
770
  8
TFAS-0009
  6
CONTINUOUS
 62
     7
 10
6805.919475142233
 20
-4839.269498467351
 30
0.0
 11
6805.07049846782
 21
-4840.118475141768
 31
0.0
  0
CIRCLE
  5
771
  8
TFAS-0009
  6
CONTINUOUS
 62
     7
 10
6811.107000000309
 20
-4839.066000000108
 30
0.0
 40
1.5
  0
LINE
  5
772
  8
TFAS-0009
  6
CONTINUOUS
 62
     7
 10
6812.587294307552
 20
-4838.823659817865
 30
0.0
 11
6810.864659818062
 21
-4840.546294307355
 31
0.0
  0
LINE
  5
773
  8
TFAS-0009
  6
CONTINUOUS
 62
     7
 10
6812.150098086933
 20
-4837.988063832355
 30
0.0
 11
6810.029063832577
 21
-4840.109098086711
 31
0.0
  0
LINE
  5
774
  8
TFAS-0009
  6
CONTINUOUS
 62
     7
 10
6811.288364931837
 20
-4837.577004781305
 30
0.0
 11
6809.618004781511
 21
-4839.247364931632
 31
0.0
  0
LINE
  5
775
  8
TFAS-0009
  6
CONTINUOUS
 62
     7
 10
6812.5408669762
 20
-4839.506483252294
 30
0.0
 11
6811.547483252516
 21
-4840.499866975974
 31
0.0
  0
LINE
  5
776
  8
TFAS-0009
  6
CONTINUOUS
 62
     7
 10
6812.587294307552
 20
-4838.823659817865
 30
0.0
 11
6810.864659818062
 21
-4840.546294307355
 31
0.0
  0
LINE
  5
777
  8
TFAS-0009
  6
CONTINUOUS
 62
     7
 10
6812.424898466692
 20
-4838.349659555653
 30
0.0
 11
6810.39065955588
 21
-4840.383898466469
 31
0.0
  0
LINE
  5
778
  8
TFAS-0009
  6
CONTINUOUS
 62
     7
 10
6812.150098086933
 20
-4837.988063832355
 30
0.0
 11
6810.029063832577
 21
-4840.109098086711
 31
0.0
  0
LINE
  5
779
  8
TFAS-0009
  6
CONTINUOUS
 62
     7
 10
6811.777544509301
 20
-4837.724221306914
 30
0.0
 11
6809.765221307136
 21
-4839.736544509079
 31
0.0
  0
LINE
  5
77A
  8
TFAS-0009
  6
CONTINUOUS
 62
     7
 10
6811.288364931837
 20
-4837.577004781305
 30
0.0
 11
6809.618004781511
 21
-4839.247364931632
 31
0.0
  0
LINE
  5
77B
  8
TFAS-0009
  6
CONTINUOUS
 62
     7
 10
6810.559475142363
 20
-4837.669498467723
 30
0.0
 11
6809.71049846795
 21
-4838.51847514214
 31
0.0
  0
CIRCLE
  5
77C
  8
TFAS-0009
  6
CONTINUOUS
 62
     7
 10
6806.787000000011
 20
-4831.865999999922
 30
0.0
 40
1.5
  0
LINE
  5
77D
  8
TFAS-0009
  6
CONTINUOUS
 62
     7
 10
6808.267294307254
 20
-4831.623659817678
 30
0.0
 11
6806.544659817764
 21
-4833.346294307169
 31
0.0
  0
LINE
  5
77E
  8
TFAS-0009
  6
CONTINUOUS
 62
     7
 10
6807.830098086635
 20
-4830.788063832169
 30
0.0
 11
6805.709063832279
 21
-4832.909098086525
 31
0.0
  0
LINE
  5
77F
  8
TFAS-0009
  6
CONTINUOUS
 62
     7
 10
6806.968364931539
 20
-4830.377004781119
 30
0.0
 11
6805.298004781213
 21
-4832.047364931445
 31
0.0
  0
LINE
  5
780
  8
TFAS-0009
  6
CONTINUOUS
 62
     7
 10
6808.220866975902
 20
-4832.306483252108
 30
0.0
 11
6807.227483252218
 21
-4833.299866975788
 31
0.0
  0
LINE
  5
781
  8
TFAS-0009
  6
CONTINUOUS
 62
     7
 10
6808.267294307254
 20
-4831.623659817678
 30
0.0
 11
6806.544659817764
 21
-4833.346294307169
 31
0.0
  0
LINE
  5
782
  8
TFAS-0009
  6
CONTINUOUS
 62
     7
 10
6808.104898466394
 20
-4831.149659555467
 30
0.0
 11
6806.070659555582
 21
-4833.183898466283
 31
0.0
  0
LINE
  5
783
  8
TFAS-0009
  6
CONTINUOUS
 62
     7
 10
6807.830098086635
 20
-4830.788063832169
 30
0.0
 11
6805.709063832279
 21
-4832.909098086525
 31
0.0
  0
LINE
  5
784
  8
TFAS-0009
  6
CONTINUOUS
 62
     7
 10
6807.457544509003
 20
-4830.524221306728
 30
0.0
 11
6805.445221306838
 21
-4832.536544508893
 31
0.0
  0
LINE
  5
785
  8
TFAS-0009
  6
CONTINUOUS
 62
     7
 10
6806.968364931539
 20
-4830.377004781119
 30
0.0
 11
6805.298004781213
 21
-4832.047364931445
 31
0.0
  0
LINE
  5
786
  8
TFAS-0009
  6
CONTINUOUS
 62
     7
 10
6806.239475142065
 20
-4830.469498467537
 30
0.0
 11
6805.390498467652
 21
-4831.318475141954
 31
0.0
  0
CIRCLE
  5
787
  8
TFAS-0009
  6
CONTINUOUS
 62
     7
 10
6812.067000000272
 20
-4828.506000000052
 30
0.0
 40
1.5
  0
LINE
  5
788
  8
TFAS-0009
  6
CONTINUOUS
 62
     7
 10
6813.547294307515
 20
-4828.263659817809
 30
0.0
 11
6811.824659818025
 21
-4829.986294307299
 31
0.0
  0
LINE
  5
789
  8
TFAS-0009
  6
CONTINUOUS
 62
     7
 10
6813.110098086896
 20
-4827.428063832299
 30
0.0
 11
6810.98906383254
 21
-4829.549098086655
 31
0.0
  0
LINE
  5
78A
  8
TFAS-0009
  6
CONTINUOUS
 62
     7
 10
6812.2483649318
 20
-4827.017004781249
 30
0.0
 11
6810.578004781473
 21
-4828.687364931576
 31
0.0
  0
LINE
  5
78B
  8
TFAS-0009
  6
CONTINUOUS
 62
     7
 10
6813.500866976163
 20
-4828.946483252238
 30
0.0
 11
6812.507483252479
 21
-4829.939866975918
 31
0.0
  0
LINE
  5
78C
  8
TFAS-0009
  6
CONTINUOUS
 62
     7
 10
6813.547294307515
 20
-4828.263659817809
 30
0.0
 11
6811.824659818025
 21
-4829.986294307299
 31
0.0
  0
LINE
  5
78D
  8
TFAS-0009
  6
CONTINUOUS
 62
     7
 10
6813.384898466655
 20
-4827.789659555598
 30
0.0
 11
6811.350659555843
 21
-4829.823898466413
 31
0.0
  0
LINE
  5
78E
  8
TFAS-0009
  6
CONTINUOUS
 62
     7
 10
6813.110098086896
 20
-4827.428063832299
 30
0.0
 11
6810.98906383254
 21
-4829.549098086655
 31
0.0
  0
LINE
  5
78F
  8
TFAS-0009
  6
CONTINUOUS
 62
     7
 10
6812.737544509264
 20
-4827.164221306858
 30
0.0
 11
6810.725221307099
 21
-4829.176544509023
 31
0.0
  0
LINE
  5
790
  8
TFAS-0009
  6
CONTINUOUS
 62
     7
 10
6812.2483649318
 20
-4827.017004781249
 30
0.0
 11
6810.578004781473
 21
-4828.687364931576
 31
0.0
  0
LINE
  5
791
  8
TFAS-0009
  6
CONTINUOUS
 62
     7
 10
6811.519475142326
 20
-4827.109498467667
 30
0.0
 11
6810.670498467913
 21
-4827.958475142084
 31
0.0
  0
CIRCLE
  5
792
  8
TFAS-0009
  6
CONTINUOUS
 62
     7
 10
6817.827000000048
 20
-4823.865999999922
 30
0.0
 40
1.5
  0
LINE
  5
793
  8
TFAS-0009
  6
CONTINUOUS
 62
     7
 10
6819.307294307291
 20
-4823.623659817678
 30
0.0
 11
6817.584659817801
 21
-4825.346294307169
 31
0.0
  0
LINE
  5
794
  8
TFAS-0009
  6
CONTINUOUS
 62
     7
 10
6818.870098086672
 20
-4822.788063832169
 30
0.0
 11
6816.749063832316
 21
-4824.909098086525
 31
0.0
  0
LINE
  5
795
  8
TFAS-0009
  6
CONTINUOUS
 62
     7
 10
6818.008364931577
 20
-4822.377004781119
 30
0.0
 11
6816.33800478125
 21
-4824.047364931445
 31
0.0
  0
LINE
  5
796
  8
TFAS-0009
  6
CONTINUOUS
 62
     7
 10
6819.260866975939
 20
-4824.306483252108
 30
0.0
 11
6818.267483252255
 21
-4825.299866975788
 31
0.0
  0
LINE
  5
797
  8
TFAS-0009
  6
CONTINUOUS
 62
     7
 10
6819.307294307291
 20
-4823.623659817678
 30
0.0
 11
6817.584659817801
 21
-4825.346294307169
 31
0.0
  0
LINE
  5
798
  8
TFAS-0009
  6
CONTINUOUS
 62
     7
 10
6819.144898466431
 20
-4823.149659555467
 30
0.0
 11
6817.110659555619
 21
-4825.183898466283
 31
0.0
  0
LINE
  5
799
  8
TFAS-0009
  6
CONTINUOUS
 62
     7
 10
6818.870098086672
 20
-4822.788063832169
 30
0.0
 11
6816.749063832316
 21
-4824.909098086525
 31
0.0
  0
LINE
  5
79A
  8
TFAS-0009
  6
CONTINUOUS
 62
     7
 10
6818.49754450904
 20
-4822.524221306728
 30
0.0
 11
6816.485221306875
 21
-4824.536544508893
 31
0.0
  0
LINE
  5
79B
  8
TFAS-0009
  6
CONTINUOUS
 62
     7
 10
6818.008364931577
 20
-4822.377004781119
 30
0.0
 11
6816.33800478125
 21
-4824.047364931445
 31
0.0
  0
LINE
  5
79C
  8
TFAS-0009
  6
CONTINUOUS
 62
     7
 10
6817.279475142102
 20
-4822.469498467537
 30
0.0
 11
6816.430498467689
 21
-4823.318475141954
 31
0.0
  0
CIRCLE
  5
79D
  8
TFAS-0009
  6
CONTINUOUS
 62
     7
 10
6817.666999999899
 20
-4818.905999999959
 30
0.0
 40
1.5
  0
LINE
  5
79E
  8
TFAS-0009
  6
CONTINUOUS
 62
     7
 10
6819.147294307142
 20
-4818.663659817716
 30
0.0
 11
6817.424659817652
 21
-4820.386294307206
 31
0.0
  0
LINE
  5
79F
  8
TFAS-0009
  6
CONTINUOUS
 62
     7
 10
6818.710098086523
 20
-4817.828063832206
 30
0.0
 11
6816.589063832167
 21
-4819.949098086562
 31
0.0
  0
LINE
  5
7A0
  8
TFAS-0009
  6
CONTINUOUS
 62
     7
 10
6817.848364931428
 20
-4817.417004781156
 30
0.0
 11
6816.178004781101
 21
-4819.087364931483
 31
0.0
  0
LINE
  5
7A1
  8
TFAS-0009
  6
CONTINUOUS
 62
     7
 10
6819.10086697579
 20
-4819.346483252145
 30
0.0
 11
6818.107483252106
 21
-4820.339866975825
 31
0.0
  0
LINE
  5
7A2
  8
TFAS-0009
  6
CONTINUOUS
 62
     7
 10
6819.147294307142
 20
-4818.663659817716
 30
0.0
 11
6817.424659817652
 21
-4820.386294307206
 31
0.0
  0
LINE
  5
7A3
  8
TFAS-0009
  6
CONTINUOUS
 62
     7
 10
6818.984898466282
 20
-4818.189659555504
 30
0.0
 11
6816.95065955547
 21
-4820.22389846632
 31
0.0
  0
LINE
  5
7A4
  8
TFAS-0009
  6
CONTINUOUS
 62
     7
 10
6818.710098086523
 20
-4817.828063832206
 30
0.0
 11
6816.589063832167
 21
-4819.949098086562
 31
0.0
  0
LINE
  5
7A5
  8
TFAS-0009
  6
CONTINUOUS
 62
     7
 10
6818.337544508891
 20
-4817.564221306765
 30
0.0
 11
6816.325221306726
 21
-4819.57654450893
 31
0.0
  0
LINE
  5
7A6
  8
TFAS-0009
  6
CONTINUOUS
 62
     7
 10
6817.848364931428
 20
-4817.417004781156
 30
0.0
 11
6816.178004781101
 21
-4819.087364931483
 31
0.0
  0
LINE
  5
7A7
  8
TFAS-0009
  6
CONTINUOUS
 62
     7
 10
6817.119475141953
 20
-4817.509498467574
 30
0.0
 11
6816.27049846754
 21
-4818.358475141991
 31
0.0
  0
CIRCLE
  5
7A8
  8
TFAS-0009
  6
CONTINUOUS
 62
     7
 10
6823.587000000291
 20
-4817.617999999784
 30
0.0
 40
1.5
  0
LINE
  5
7A9
  8
TFAS-0009
  6
CONTINUOUS
 62
     7
 10
6825.067294307533
 20
-4817.375659817541
 30
0.0
 11
6823.344659818044
 21
-4819.098294307031
 31
0.0
  0
LINE
  5
7AA
  8
TFAS-0009
  6
CONTINUOUS
 62
     7
 10
6824.630098086915
 20
-4816.540063832031
 30
0.0
 11
6822.509063832558
 21
-4818.661098086387
 31
0.0
  0
LINE
  5
7AB
  8
TFAS-0009
  6
CONTINUOUS
 62
     7
 10
6823.768364931819
 20
-4816.129004780981
 30
0.0
 11
6822.098004781492
 21
-4817.799364931308
 31
0.0
  0
LINE
  5
7AC
  8
TFAS-0009
  6
CONTINUOUS
 62
     7
 10
6825.020866976181
 20
-4818.05848325197
 30
0.0
 11
6824.027483252497
 21
-4819.05186697565
 31
0.0
  0
LINE
  5
7AD
  8
TFAS-0009
  6
CONTINUOUS
 62
     7
 10
6825.067294307533
 20
-4817.375659817541
 30
0.0
 11
6823.344659818044
 21
-4819.098294307031
 31
0.0
  0
LINE
  5
7AE
  8
TFAS-0009
  6
CONTINUOUS
 62
     7
 10
6824.904898466673
 20
-4816.901659555329
 30
0.0
 11
6822.870659555861
 21
-4818.935898466145
 31
0.0
  0
LINE
  5
7AF
  8
TFAS-0009
  6
CONTINUOUS
 62
     7
 10
6824.630098086915
 20
-4816.540063832031
 30
0.0
 11
6822.509063832558
 21
-4818.661098086387
 31
0.0
  0
LINE
  5
7B0
  8
TFAS-0009
  6
CONTINUOUS
 62
     7
 10
6824.257544509283
 20
-4816.27622130659
 30
0.0
 11
6822.245221307117
 21
-4818.288544508755
 31
0.0
  0
LINE
  5
7B1
  8
TFAS-0009
  6
CONTINUOUS
 62
     7
 10
6823.768364931819
 20
-4816.129004780981
 30
0.0
 11
6822.098004781492
 21
-4817.799364931308
 31
0.0
  0
LINE
  5
7B2
  8
TFAS-0009
  6
CONTINUOUS
 62
     7
 10
6823.039475142345
 20
-4816.221498467399
 30
0.0
 11
6822.190498467931
 21
-4817.070475141816
 31
0.0
  0
LINE
  5
7B3
  8
TFAS-0009
  6
HIDDEN
 62
     7
 10
6193.773000000045
 20
-4841.617999999784
 30
0.0
 11
6145.773000000045
 21
-4841.617999999784
 31
0.0
  0
LINE
  5
7B4
  8
TFAS-0009
  6
HIDDEN
 62
     7
 10
6145.773000000045
 20
-4854.117999999784
 30
0.0
 11
6193.773000000045
 21
-4854.117999999784
 31
0.0
  0
INSERT
  5
7C8
  8
TFAS-0005
  6
CONTINUOUS
 62
     7
  2
INS-D8NGX
 10
0.0
 20
0.0
 30
0.0
  0
DIMENSION
  5
7D1
  8
TFAS-0005
  6
CONTINUOUS
 62
     7
  2
*D6
 10
6433.523000000045
 20
-4841.617999999784
 30
0.0
 11
6433.523000000045
 21
-4958.368000002467
 31
0.0
 70
   160
  1
<>以上
  3
DIM001
 13
6398.523000000045
 23
-5075.117999999784
 33
0.0
 14
6398.523000000045
 24
-4841.617999999784
 34
0.0
 50
90.0
 52
90.0
1001
ACAD
1000
DSTYLE
1002
{
1070
   174
1070
     1
1002
}
  0
DIMENSION
  5
7DE
  8
TFAS-0005
  6
CONTINUOUS
 62
     7
  2
*D7
 10
6130.773000000045
 20
-5313.367999999784
 30
0.0
 11
6077.265142857187
 21
-5313.367999999784
 31
0.0
 70
   160
  1
<>以上
  3
DIM001
 13
6120.773000000045
 23
-5208.367999999784
 33
0.0
 14
6130.773000000045
 24
-5208.367999999784
 34
0.0
  0
DIMENSION
  5
7EE
  8
TFAS-0005
  6
CONTINUOUS
 62
     7
  2
*D8
 10
6208.773000000045
 20
-5313.367999999784
 30
0.0
 11
6169.773000001693
 21
-5313.367999999784
 31
0.0
 70
   160
  1
<>以下
  3
DIM001
 13
6130.773000000045
 23
-5208.367999999784
 33
0.0
 14
6208.773000000045
 24
-5208.367999999784
 34
0.0
1001
ACAD
1000
DSTYLE
1002
{
1070
   174
1070
     1
1002
}
  0
DIMENSION
  5
7FB
  8
TFAS-0005
  6
CONTINUOUS
 62
     7
  2
*D9
 10
6218.773000000045
 20
-5313.367999999784
 30
0.0
 11
6262.280857142902
 21
-5313.367999999784
 31
0.0
 70
   160
  1
<>以上
  3
DIM001
 13
6208.773000000045
 23
-5208.367999999784
 33
0.0
 14
6218.773000000045
 24
-5208.367999999784
 34
0.0
  0
INSERT
  5
81D
  8
TFAS-0005
  6
CONTINUOUS
 62
     7
  2
INS-D51HQ
 10
0.0
 20
0.0
 30
0.0
  0
DIMENSION
  5
81E
  8
TFAS-0005
  6
CONTINUOUS
 62
     7
  2
*D11
 10
6145.773000000045
 20
-4796.617999999784
 30
0.0
 11
6085.361571428616
 21
-4796.617999999784
 31
0.0
 70
   160
  1
2～<>
  3
DIM001
 13
6130.773000000045
 23
-4831.617999999784
 33
0.0
 14
6145.773000000045
 24
-4831.617999999784
 34
0.0
  0
DIMENSION
  5
82E
  8
TFAS-0005
  6
CONTINUOUS
 62
     7
  2
*D12
 10
6208.773000000045
 20
-4796.617999999784
 30
0.0
 11
6254.184428571473
 21
-4796.617999999784
 31
0.0
 70
   160
  1
2～<>
  3
DIM001
 13
6193.773000000045
 23
-4831.617999999784
 33
0.0
 14
6208.773000000045
 24
-4831.617999999784
 34
0.0
  0
DIMENSION
  5
83E
  8
TFAS-0005
  6
CONTINUOUS
 62
     7
  2
*D13
 10
6208.773000000045
 20
-4673.367999999784
 30
0.0
 11
6169.772999997189
 21
-4673.367999999784
 31
0.0
 70
   160
  1
φ<>以下
  3
DIM001
 13
6130.773000000045
 23
-4708.367999999784
 33
0.0
 14
6208.773000000045
 24
-4708.367999999784
 34
0.0
1001
ACAD
1000
DSTYLE
1002
{
1070
   174
1070
     1
1002
}
  0
TEXT
  5
84B
  8
TFAS-0005
  6
CONTINUOUS
 62
     7
 10
6129.272999986759
 20
-4697.157999988291
 30
0.0
 40
20.79
  1
（開口寸法）
 41
0.5489356004819923
  7
STYLE3
 72
     1
 11
6169.772999986759
 21
-4676.367999988291
 31
0.0
 73
     3
  0
DIMENSION
  5
84C
  8
TFAS-0005
  6
CONTINUOUS
 62
     7
  2
*D14
 10
6145.773000000045
 20
-5005.117999999784
 30
0.0
 11
6085.361571428616
 21
-5005.117999999784
 31
0.0
 70
   160
  1
0～<>
  3
DIM001
 13
6130.773000000045
 23
-5040.117999999784
 33
0.0
 14
6145.773000000045
 24
-5040.117999999784
 34
0.0
  0
INSERT
  5
86D
  8
TFAS-0005
  6
CONTINUOUS
 62
     7
  2
INS-DOD7P
 10
0.0
 20
0.0
 30
0.0
  0
DIMENSION
  5
86E
  8
TFAS-0005
  6
CONTINUOUS
 62
     7
  2
*D16
 10
6208.773000000045
 20
-5005.117999999784
 30
0.0
 11
6254.184428571473
 21
-5005.117999999784
 31
0.0
 70
   160
  1
0～<>
  3
DIM001
 13
6193.773000000045
 23
-5040.117999999784
 33
0.0
 14
6208.773000000045
 24
-5040.117999999784
 34
0.0
  0
DIMENSION
  5
87E
  8
TFAS-0005
  6
CONTINUOUS
 62
     7
  2
*D17
 10
6798.273000000045
 20
-5243.367999999784
 30
0.0
 11
6744.765142857187
 21
-5243.367999999784
 31
0.0
 70
   160
  1
<>以上
  3
DIM001
 13
6788.273000000045
 23
-5208.367999999784
 33
0.0
 14
6798.273000000045
 24
-5208.367999999784
 34
0.0
  0
DIMENSION
  5
890
  8
TFAS-0005
  6
CONTINUOUS
 62
     7
  2
*D18
 10
6876.273000000045
 20
-5243.367999999784
 30
0.0
 11
6836.264999989882
 21
-5228.368000004314
 31
0.0
 70
   160
  1
φ<>以下
  3
DIM002
 13
6798.273000000045
 23
-5208.367999999784
 33
0.0
 14
6876.273000000045
 24
-5208.367999999784
 34
0.0
1001
ACAD
1000
DSTYLE
1002
{
1070
   287
1070
     5
1070
   279
1070
     2
1002
}
  0
DIMENSION
  5
89D
  8
TFAS-0005
  6
CONTINUOUS
 62
     7
  2
*D19
 10
6886.273000000045
 20
-5243.367999999784
 30
0.0
 11
6929.780857142902
 21
-5243.367999999784
 31
0.0
 70
   160
  1
<>以上
  3
DIM001
 13
6876.273000000045
 23
-5208.367999999784
 33
0.0
 14
6886.273000000045
 24
-5208.367999999784
 34
0.0
  0
TEXT
  5
8AD
  8
TFAS-0005
  6
CONTINUOUS
 62
     7
 10
6796.772999983249
 20
-5267.158000004326
 30
0.0
 40
20.79
  1
（開口寸法）
 41
0.5489356004819923
  7
STYLE3
 72
     1
 11
6837.272999983249
 21
-5246.368000004326
 31
0.0
 73
     3
  0
DIMENSION
  5
8AE
  8
TFAS-0005
  6
CONTINUOUS
 62
     7
  2
*D20
 10
7005.523000000045
 20
-5099.117999999784
 30
0.0
 11
7005.523000000045
 21
-5159.529428571213
 31
0.0
 70
   160
  1
0～<>
  3
DIM001
 13
6970.523000000045
 23
-5114.117999999784
 33
0.0
 14
6970.523000000045
 24
-5099.117999999784
 34
0.0
 50
90.0
 52
90.0
  0
INSERT
  5
8CF
  8
TFAS-0005
  6
CONTINUOUS
 62
     7
  2
INS-D926F
 10
0.0
 20
0.0
 30
0.0
  0
DIMENSION
  5
8D0
  8
TFAS-0005
  6
CONTINUOUS
 62
     7
  2
*D22
 10
7005.523000000045
 20
-5036.117999999784
 30
0.0
 11
7005.523000000045
 21
-4990.706571428355
 31
0.0
 70
   160
  1
0～<>
  3
DIM001
 13
6970.523000000045
 23
-5051.117999999784
 33
0.0
 14
6970.523000000045
 24
-5036.117999999784
 34
0.0
 50
90.0
 52
90.0
  0
DIMENSION
  5
8E0
  8
TFAS-0005
  6
CONTINUOUS
 62
     7
  2
*D23
 10
7005.523000000045
 20
-4865.617999999784
 30
0.0
 11
7005.523000000045
 21
-4926.029428571213
 31
0.0
 70
   160
  1
2～<>
  3
DIM001
 13
6970.523000000045
 23
-4880.617999999784
 33
0.0
 14
6970.523000000045
 24
-4865.617999999784
 34
0.0
 50
90.0
 52
90.0
  0
INSERT
  5
901
  8
TFAS-0005
  6
CONTINUOUS
 62
     7
  2
INS-D7F8D
 10
0.0
 20
0.0
 30
0.0
  0
DIMENSION
  5
902
  8
TFAS-0005
  6
CONTINUOUS
 62
     7
  2
*D25
 10
7005.523000000045
 20
-4802.617999999784
 30
0.0
 11
7005.523000000045
 21
-4757.206571428355
 31
0.0
 70
   160
  1
2～<>
  3
DIM001
 13
6970.523000000045
 23
-4817.617999999784
 33
0.0
 14
6970.523000000045
 24
-4802.617999999784
 34
0.0
 50
90.0
 52
90.0
  0
DIMENSION
  5
914
  8
TFAS-0005
  6
CONTINUOUS
 62
     7
  2
*D26
 10
7075.523000000045
 20
-5036.117999999784
 30
0.0
 11
7060.522999989853
 21
-5076.014000013505
 31
0.0
 70
   160
  1
φ<>以下
 53
90.0
  3
DIM003
 13
6970.523000000045
 23
-5114.117999999784
 33
0.0
 14
6970.523000000045
 24
-5036.117999999784
 34
0.0
 50
90.0
 52
90.0
1001
ACAD
1000
DSTYLE
1002
{
1070
   287
1070
     5
1070
   279
1070
     2
1002
}
  0
TEXT
  5
921
  8
TFAS-0005
  6
CONTINUOUS
 62
     7
 10
7099.31300003964
 20
-5115.618000021299
 30
0.0
 40
20.79
  1
（開口寸法）
 50
90.0
 41
0.5489356004819923
  7
STYLE3
 72
     1
 11
7078.52300003964
 21
-5075.118000021299
 31
0.0
 73
     3
  0
DIMENSION
  5
922
  8
TFAS-0005
  6
CONTINUOUS
 62
     7
  2
*D27
 10
7075.523000000045
 20
-4802.617999999784
 30
0.0
 11
7060.523000013116
 21
-4842.850000002712
 31
0.0
 70
   160
  1
φ<>以下
 53
90.0
  3
DIM003
 13
6970.523000000045
 23
-4880.617999999784
 33
0.0
 14
6970.523000000045
 24
-4802.617999999784
 34
0.0
 50
90.0
 52
90.0
1001
ACAD
1000
DSTYLE
1002
{
1070
   287
1070
     5
1070
   279
1070
     2
1002
}
  0
TEXT
  5
92F
  8
TFAS-0005
  6
CONTINUOUS
 62
     7
 10
7099.313000074639
 20
-4882.118000021062
 30
0.0
 40
20.79
  1
（開口寸法）
 50
90.0
 41
0.5489356004819923
  7
STYLE3
 72
     1
 11
7078.523000074639
 21
-4841.618000021062
 31
0.0
 73
     3
  0
INSERT
  5
933
  8
TFAS-0005
  2
INS-GGSIM
 10
6033.246
 20
-5156.978999999999
 30
0.0
  0
INSERT
  5
93D
  8
TFAS-0005
  2
INS-G57E1
 10
6026.2635
 20
-5114.0725
 30
0.0
  0
INSERT
  5
947
  8
TFAS-0005
  2
INS-G7FBI
 10
6269.771000000001
 20
-5106.744000000001
 30
0.0
  0
INSERT
  5
951
  8
TFAS-0005
  2
INS-G4NB7
 10
6290.014499999999
 20
-5152.2395
 30
0.0
  0
INSERT
  5
95C
  8
TFAS-0005
  2
INS-G4OQA
 10
6316.056
 20
-4763.257
 30
0.0
  0
INSERT
  5
966
  8
TFAS-0005
  2
INS-G8TAZ
 10
6026.440000000001
 20
-4899.9285
 30
0.0
  0
INSERT
  5
971
  8
TFAS-0005
  2
INS-GAXQ9
 10
6286.941500000001
 20
-4807.797
 30
0.0
  0
INSERT
  5
97B
  8
TFAS-0005
  2
INS-G8YPS
 10
6002.946
 20
-4798.5885
 30
0.0
  0
INSERT
  5
985
  8
TFAS-0005
  2
INS-G5PDO
 10
6896.562
 20
-4902.1875
 30
0.0
  0
INSERT
  5
98F
  8
TFAS-0005
  2
INS-G6R1N
 10
6719.184999999999
 20
-5151.017
 30
0.0
  0
INSERT
  5
999
  8
TFAS-0005
  2
INS-G3VZ0
 10
6698.103499999999
 20
-5130.7695
 30
0.0
  0
INSERT
  5
9A3
  8
TFAS-0005
  2
INS-G3LN6
 10
6923.099
 20
-5177.262000000001
 30
0.0
  0
INSERT
  5
9AD
  8
TFAS-0005
  2
INS-GUTL4
 10
6923.099
 20
-4750.6065
 30
0.0
  0
POLYLINE
  5
9B4
  8
TFAS-0005
  6
CONTINUOUS
 62
     7
 66
     1
 10
0.0
 20
0.0
 30
0.0
 70
     1
  0
VERTEX
  5
9B5
  8
TFAS-0005
  6
CONTINUOUS
 62
     7
 10
6564.703000013314
 20
-5096.1179999847
 30
0.0
  0
VERTEX
  5
9B6
  8
TFAS-0005
  6
CONTINUOUS
 62
     7
 10
6709.843000013314
 20
-5096.1179999847
 30
0.0
  0
VERTEX
  5
9B7
  8
TFAS-0005
  6
CONTINUOUS
 62
     7
 10
6709.843000013314
 20
-5054.1179999847
 30
0.0
  0
VERTEX
  5
9B8
  8
TFAS-0005
  6
CONTINUOUS
 62
     7
 10
6564.703000013314
 20
-5054.1179999847
 30
0.0
  0
SEQEND
  5
9B9
  8
TFAS-0005
  6
CONTINUOUS
 62
     7
  0
TEXT
  5
9BA
  8
TFAS-0005
  6
CONTINUOUS
 62
     7
 10
6572.203000013315
 20
-5085.5129999847
 30
0.0
 40
20.79
  1
平面図(床下)
 41
0.7894191178648655
  7
STYLE3
 72
     1
 11
6637.273000013314
 21
-5075.1179999847
 31
0.0
 73
     2
  0
POLYLINE
  5
9BB
  8
TFAS-0005
  6
CONTINUOUS
 62
     7
 66
     1
 10
0.0
 20
0.0
 30
0.0
 70
     1
  0
VERTEX
  5
9BC
  8
TFAS-0005
  6
CONTINUOUS
 62
     7
 10
6564.703000000558
 20
-4862.618000006865
 30
0.0
  0
VERTEX
  5
9BD
  8
TFAS-0005
  6
CONTINUOUS
 62
     7
 10
6709.843000000558
 20
-4862.618000006865
 30
0.0
  0
VERTEX
  5
9BE
  8
TFAS-0005
  6
CONTINUOUS
 62
     7
 10
6709.843000000558
 20
-4820.618000006865
 30
0.0
  0
VERTEX
  5
9BF
  8
TFAS-0005
  6
CONTINUOUS
 62
     7
 10
6564.703000000558
 20
-4820.618000006865
 30
0.0
  0
SEQEND
  5
9C0
  8
TFAS-0005
  6
CONTINUOUS
 62
     7
  0
TEXT
  5
9C1
  8
TFAS-0005
  6
CONTINUOUS
 62
     7
 10
6572.203000000558
 20
-4852.013000006866
 30
0.0
 40
20.79
  1
平面図(床上)
 41
0.7894191178648655
  7
STYLE3
 72
     1
 11
6637.273000000558
 21
-4841.618000006865
 31
0.0
 73
     2
  0
INSERT
  5
9C5
  8
TFAS-0005
  2
INS-GZ6T9
 10
6907.809
 20
-5002.486
 30
0.0
  0
INSERT
  5
9CF
  8
TFAS-0005
  2
INS-G6BJR
 10
6684.523999999999
 20
-4787.1985
 30
0.0
  0
INSERT
  5
9D9
  8
TFAS-0005
  2
INS-G4AZM
 10
6684.523999999999
 20
-5020.6985
 30
0.0
  0
TEXT
  5
9E0
  8
TFAS-0005
  6
CONTINUOUS
 62
     7
 10
6815.04000000114
 20
-5356.723999986034
 30
0.0
 40
20.79
  1
注) 配管種については認定書参照
 41
0.7778708157974908
  7
STYLE3
 72
     2
 11
7148.220000001141
 21
-5362.933999986034
 31
0.0
 73
     1
  0
ENDSEC
  0
EOF
